<?xml version="1.0" standalone="no"?>
<!DOCTYPE svg PUBLIC "-//W3C//DTD SVG 1.1//EN" "http://www.w3.org/Graphics/SVG/1.1/DTD/svg11.dtd" >
<svg>
<metadata>
Created by FontForge 20090914 at Mon Aug 27 21:11:46 2018
 By www-data
 The digitally encoded machine readable software for producing the Typefaces licensed to you is copyrighted (c) 1988, 1995 Adobe Systems. All Rights Reserved. This software is the property of Adobe Systems Incorporated and its licensors, and may not be reproduced, used,  displayed, modified, disclosed or transferred without the express  written approval of Adobe.  The digitally encoded machine readable outline data for producing the Typefaces licensed to you is copyrighted (c) 1981 Linotype-Hell AG and/or its subsidiaries. All Rights Reserved. This data is the property of Linotype-Hell AG and/or its subsidiaries and may not be reproduced, used, displayed, modified, disclosed or  transferred without the express written approval of Linotype-Hell AG  and/or its subsidiaries. 
</metadata>
<defs>
<font id="Goudy-Heavyface" horiz-adv-x="648" >
  <font-face 
    font-family="Goudy"
    font-weight="800"
    font-stretch="normal"
    units-per-em="1000"
    panose-1="2 0 9 3 0 0 0 0 0 0"
    ascent="800"
    descent="-200"
    x-height="515.999"
    cap-height="683"
    bbox="-167 -250 1133 953.999"
    underline-thickness="50"
    underline-position="-100"
    unicode-range="U+0020-U+FFFD"
  />
<missing-glyph horiz-adv-x="324" 
 />
    <glyph glyph-name=".notdef" unicode="&#xfffd;" horiz-adv-x="324" 
 />
    <glyph glyph-name="space" unicode=" " horiz-adv-x="324" 
 />
    <glyph glyph-name="exclam" unicode="!" horiz-adv-x="389" 
d="M293 89c0 -30.667 -8.66699 -54.167 -26 -70.5s-42 -24.5 -74 -24.5s-56.667 8 -74 24s-26 39.667 -26 71c0 30.667 8.66699 54.167 26 70.5s42 24.5 74 24.5s56.667 -8 74 -24s26 -39.667 26 -71zM89 616c0 30.667 8.16797 51.8311 24.501 63.498
s41.166 17.5 74.499 17.5c75.333 0 113 -29.667 113 -89c0 -39.333 -3.5 -84.5 -10.5 -135.5s-20.167 -100.667 -39.5 -149s-42.333 -72.5 -69 -72.5c-18 0 -34.667 24.833 -50 74.5s-26.333 101.834 -33 156.501s-10 99.334 -10 134.001z" />
    <glyph glyph-name="quotedbl" unicode="&#x22;" horiz-adv-x="333" 
d="M128 616l-20.001 -204c-0.666992 -8.66699 -4.16699 -16 -10.5 -22s-13.166 -9 -20.499 -9c-8 0 -15 3.16699 -21 9.5s-9.33301 13.5 -10 21.5l-20 204c-5.33301 54 11.667 81 51 81c38 0 55 -27 51 -81zM306.999 616l-20.001 -204
c-0.666992 -8.66699 -4.16699 -16 -10.5 -22s-13.166 -9 -20.499 -9c-8 0 -15 3.16699 -21 9.5s-9.33301 13.5 -10 21.5l-20 204c-5.33301 54 11.667 81 51 81c38 0 55 -27 51 -81z" />
    <glyph glyph-name="numbersign" unicode="#" 
d="M533 279l-4 -91h-82l-26 -188h-95l25 188h-87l-25 -188h-96l26 188h-81l4 91h90l16 110h-82l4 91h90l26 188h95l-25 -188h86l26 188h96l-26 -188h73l-4 -91h-82l-15 -110h73zM380 389h-87l-15 -110h87z" />
    <glyph glyph-name="dollar" unicode="$" 
d="M274 463v90.001c-22.667 1.33301 -39 -0.833984 -49 -6.50098s-15 -16.167 -15 -31.5c0 -26.667 21.333 -44 64 -52zM352 222.001v-92.0049c43.333 0 65 15 65 45c0 6 -1.16699 11.333 -3.5 16s-4.66602 8.33398 -6.99902 11.001s-6.33301 5.33398 -12 8.00098
s-9.83398 4.33398 -12.501 5.00098s-8 1.83398 -16 3.50098s-12.667 2.83398 -14 3.50098zM265 134.996v99.001c-65.333 12 -118 35.667 -158 71s-60 84 -60 146c0 35.333 5.83301 66.666 17.5 93.999s25.834 49 42.501 65s35.834 29.167 57.501 39.5
s41.5 17.166 59.5 20.499s34.667 5 50 5v58c0 7.33301 3.16699 12.5 9.5 15.5s18.166 4.5 35.499 4.5c28 0 42 -6 42 -18v-60c64.667 -16 108 -32 130 -48c14 -6 21 -39.333 21 -100c0 -23.333 -1.5 -39.166 -4.5 -47.499s-9.16699 -12.5 -18.5 -12.5
c-4.66699 0 -23.667 13.333 -57 40s-57 40 -71 40v-103c35.333 -6 65.166 -13.167 89.499 -21.5s47.5 -20 69.5 -35s38.5 -34.5 49.5 -58.5s16.5 -53 16.5 -87c0 -70.667 -22.167 -129.167 -66.5 -175.5s-100.166 -69.5 -167.499 -69.5v-96
c0 -8.66699 -2.83301 -14.667 -8.5 -18s-16.834 -5 -33.501 -5c-17.333 0 -29.166 1.66699 -35.499 5s-9.5 9 -9.5 17v97c-59.333 0 -112 11 -158 33c-14 6.66699 -23 20.5 -27 41.5s-6 56.5 -6 106.5c0 17.333 1.66699 28.333 5 33s8.66602 7 15.999 7
c11.333 0 33.333 -13 66 -39c14.667 -12 32.5 -22.333 53.5 -31s37.833 -13 50.5 -13z" />
    <glyph glyph-name="percent" unicode="%" horiz-adv-x="870" 
d="M231 -12l318 692h83l-318 -692h-83zM202 593c-14.667 0 -25 -7.16699 -31 -21.5s-9 -44.833 -9 -91.5s3 -77.167 9 -91.5s16.333 -21.5 31 -21.5s25 7.16699 31 21.5s9 44.833 9 91.5s-3 77.167 -9 91.5s-16.333 21.5 -31 21.5zM202 680c54 0 95.833 -19.333 125.5 -58
s44.5 -86 44.5 -142c0 -56.667 -14.667 -104.167 -44 -142.5s-71.333 -57.5 -126 -57.5s-96.667 19.167 -126 57.5s-44 85.833 -44 142.5c0 56 14.833 103.333 44.5 142s71.5 58 125.5 58zM667 301c-14.667 0 -25 -7.16699 -31 -21.5s-9 -44.833 -9 -91.5s3 -77.167 9 -91.5
s16.333 -21.5 31 -21.5s25 7.16699 31 21.5s9 44.833 9 91.5s-3 77.167 -9 91.5s-16.333 21.5 -31 21.5zM667 388c54 0 95.833 -19.333 125.5 -58s44.5 -86 44.5 -142c0 -56.667 -14.667 -104.167 -44 -142.5s-71.333 -57.5 -126 -57.5s-96.667 19.167 -126 57.5
s-44 85.833 -44 142.5c0 56 14.833 103.333 44.5 142s71.5 58 125.5 58z" />
    <glyph glyph-name="ampersand" unicode="&#x26;" horiz-adv-x="852" 
d="M357 -17c-105.333 0 -184.832 22.833 -238.499 68.5s-80.5 103.167 -80.5 172.5c0 44 11.333 83.833 34 119.5s55 59.167 97 70.5v2c-21.333 5.33301 -37.166 18.833 -47.499 40.5s-15.5 44.834 -15.5 69.501c0 48 20.333 88.5 61 121.5s89.667 49.5 147 49.5
c39.333 0 71.333 -8.16699 96 -24.5s37 -39.5 37 -69.5c0 -12.667 -2.83301 -23.834 -8.5 -33.501s-14.167 -14.5 -25.5 -14.5c-6.66699 0 -16.834 4.16699 -30.501 12.5s-29.167 12.5 -46.5 12.5c-24.667 0 -37 -13.667 -37 -41c0 -14 3.83301 -23 11.5 -27
s16.167 -5.16699 25.5 -3.5s17.833 0.166992 25.5 -4.5s11.5 -14 11.5 -28c0 -12.667 -4.83301 -23.167 -14.5 -31.5s-20.334 -14.833 -32.001 -19.5s-22.334 -14.834 -32.001 -30.501s-14.5 -36.834 -14.5 -63.501c0 -53.333 18.667 -95.666 56 -126.999
s79.666 -47 126.999 -47c33.333 0 61.166 8 83.499 24s33.5 40 33.5 72c0 20.667 -6 36.834 -18 48.501s-28.333 17.5 -49 17.5c-10 0 -18.167 -3.16699 -24.5 -9.5s-10.833 -13.5 -13.5 -21.5s-6.16699 -15.167 -10.5 -21.5s-9.5 -9.5 -15.5 -9.5c-34 0 -51 34.667 -51 104
c0 59.333 12.833 103.833 38.5 133.5s66.834 44.5 123.501 44.5c12 0 30 -1.16699 54 -3.5s42 -3.5 54 -3.5c22 0 33 7.33301 33 22c0 5.33301 -1.83301 11.833 -5.5 19.5s-5.5 13.834 -5.5 18.501c0 17.333 11.667 26 35 26c38 0 65.5 -15.5 82.5 -46.5
s25.5 -67.167 25.5 -108.5c0 -96.667 -46.333 -145 -139 -145c4 -16 6 -32.667 6 -50c0 -22.667 -3.5 -46.167 -10.5 -70.5s-19.167 -49.333 -36.5 -75s-38.666 -48.834 -63.999 -69.501s-58.166 -37.5 -98.499 -50.5s-84.833 -19.5 -133.5 -19.5z" />
    <glyph glyph-name="quotesingle" unicode="'" horiz-adv-x="222" 
d="M162 616l-20.001 -204c-0.666992 -8.66699 -4.16699 -16 -10.5 -22s-13.166 -9 -20.499 -9c-8 0 -15 3.16699 -21 9.5s-9.33301 13.5 -10 21.5l-20 204c-5.33301 54 11.667 81 51 81c38 0 55 -27 51 -81z" />
    <glyph glyph-name="parenleft" unicode="(" horiz-adv-x="463" 
d="M60 242c0 143.333 30.6689 249.999 92.002 319.999c35.333 40 76 72.5 122 97.5s86.667 37.5 122 37.5c33.333 0 50 -12.333 50 -37c0 -2.66699 -0.333008 -5 -1 -7s-2 -4.33301 -4 -7s-3.83301 -4.83398 -5.5 -6.50098s-4.16699 -4 -7.5 -7s-5.83301 -5.16699 -7.5 -6.5
s-4.83398 -3.66602 -9.50098 -6.99902s-7.66699 -5.66602 -9 -6.99902c-17.333 -13.333 -32.333 -26.666 -45 -39.999s-23.334 -25.666 -32.001 -36.999s-15.834 -25.333 -21.501 -42s-10 -30.834 -13 -42.501s-5.16699 -28.5 -6.5 -50.5s-2.16602 -39.833 -2.49902 -53.5
s-0.5 -35.167 -0.5 -64.5c0 -236.667 38.667 -374.334 116 -413.001c17.333 -8.66699 29.833 -16.5 37.5 -23.5s11.5 -16.167 11.5 -27.5c0 -14 -4.5 -24.167 -13.5 -30.5s-26.167 -9.5 -51.5 -9.5c-30.667 0 -71.5 13.833 -122.5 41.5s-89.5 61.167 -115.5 100.5
c-55.333 84.667 -83 192 -83 322z" />
    <glyph glyph-name="parenright" unicode=")" horiz-adv-x="463" 
d="M403 233c0 -143.333 -30.6689 -249.999 -92.002 -319.999c-35.333 -40 -76 -72.5 -122 -97.5s-86.667 -37.5 -122 -37.5c-33.333 0 -50 12.333 -50 37c0 2.66699 0.333008 5 1 7s2 4.33301 4 7s3.83301 4.83398 5.5 6.50098s4.16699 4 7.5 7s5.83301 5.16699 7.5 6.5
s4.83398 3.66602 9.50098 6.99902s7.66699 5.66602 9 6.99902c17.333 13.333 32.333 26.666 45 39.999s23.334 25.666 32.001 36.999s15.834 25.333 21.501 42s10 30.834 13 42.501s5.16699 28.5 6.5 50.5s2.16602 39.833 2.49902 53.5s0.5 35.167 0.5 64.5
c0 236.667 -38.667 374.334 -116 413.001c-17.333 8.66699 -29.833 16.5 -37.5 23.5s-11.5 16.167 -11.5 27.5c0 14 4.5 24.167 13.5 30.5s26.167 9.5 51.5 9.5c30.667 0 71.5 -13.833 122.5 -41.5s89.5 -61.167 115.5 -100.5c55.333 -84.667 83 -192 83 -322z" />
    <glyph glyph-name="asterisk" unicode="*" horiz-adv-x="500" 
d="M233 457l-14.999 6l-14 -19c-7.33301 -10 -13.833 -18.5 -19.5 -25.5s-13 -13.667 -22 -20s-17.5 -9.5 -25.5 -9.5c-13.333 0 -25 4.83301 -35 14.5s-15 21.167 -15 34.5c0 12 3.5 22 10.5 30s15.833 13.5 26.5 16.5s22 5.16699 34 6.5s23 2.33301 33 3h5h4v12
c-77.333 4.66699 -116 23.334 -116 56.001c0 15.333 4.66699 28.166 14 38.499s20.666 15.5 33.999 15.5c14 0 26 -3.83301 36 -11.5s20.667 -20 32 -37s17.333 -26.167 18 -27.5l11 6c-1.33301 8 -6.83301 22.167 -16.5 42.5s-14.5 35.5 -14.5 45.5
c0 30.667 17.333 46 52 46s52 -15.333 52 -46c0 -10 -4.83301 -25.167 -14.5 -45.5s-15.167 -34.5 -16.5 -42.5l11 -6c0.666992 1.33301 6.66699 10.5 18 27.5s22 29.333 32 37s22 11.5 36 11.5c13.333 0 24.666 -5.16699 33.999 -15.5s14 -23.166 14 -38.499
c0 -32.667 -38.667 -51.334 -116 -56.001v-12c45.333 -2.66699 75.333 -8 90 -16c14.667 -10 22.334 -23.333 23.001 -40c0 -13.333 -5 -24.833 -15 -34.5s-21.667 -14.5 -35 -14.5c-8 0 -16.5 3.16699 -25.5 9.5s-16.333 13 -22 20s-12.167 15.5 -19.5 25.5l-14 19l-15 -6
c2 -5.33301 6 -13.833 12 -25.5s11 -22.667 15 -33s6 -19.5 6 -27.5c0 -15.333 -4.66699 -28 -14 -38s-21.333 -15 -36 -15s-26.667 5 -36 15s-14 22.667 -14 38c0 8 2 17.167 6 27.5s9 21.333 15 33s10 20.167 12 25.5z" />
    <glyph glyph-name="plus" unicode="+" horiz-adv-x="600" 
d="M240 316v197h120v-197h196v-120h-196v-196h-120v196h-196v120h196z" />
    <glyph glyph-name="comma" unicode="," horiz-adv-x="324" 
d="M39 87c0 32.667 11.8369 59.667 35.5039 81s52.167 32 85.5 32c41.333 0 72.666 -14.833 93.999 -44.5s32 -63.834 32 -102.501c0 -63.333 -18.167 -115.666 -54.5 -156.999s-75.833 -62 -118.5 -62c-32.667 0 -49 14 -49 42c0 2.66699 0.5 5.5 1.5 8.5s2 5.5 3 7.5
s3 4.66699 6 8s5.16699 5.5 6.5 6.5s4.16602 3.5 8.49902 7.5s7.16602 6.33301 8.49902 7c22.667 20 34 39 34 57c0 4.66699 -2.16699 8.5 -6.5 11.5s-10.833 6.16699 -19.5 9.5s-15.334 6.33301 -20.001 9c-14 8 -25.333 19.167 -34 33.5s-13 29.5 -13 45.5z" />
    <glyph glyph-name="hyphen" unicode="-" horiz-adv-x="333" 
d="M238 195l-161 -54.998c-12 -4 -19.667 -6 -23 -6c-12 0 -18 11.667 -18 35c0 30 2.33301 65.333 7 106c1.33301 10.667 3.33301 18.167 6 22.5s9 8.83301 19 13.5c3.33301 1.33301 10 3.66602 20 6.99902l150 51c18.667 6 32.667 9 42 9c11.333 0 17 -11 17 -33
c0 -18 -1.33301 -42.333 -4 -73s-6.66699 -49.334 -12 -56.001c-4.66699 -6 -19 -13 -43 -21z" />
    <glyph glyph-name="period" unicode="." horiz-adv-x="324" 
d="M271 104c0 -35.333 -10.667 -62.5 -32 -81.5s-48.666 -28.5 -81.999 -28.5c-29.333 0 -54 8.66699 -74 26s-30 40.666 -30 69.999c0 35.333 10.667 62.5 32 81.5s48.666 28.5 81.999 28.5c29.333 0 54 -8.66699 74 -26s30 -40.666 30 -69.999z" />
    <glyph glyph-name="slash" unicode="/" horiz-adv-x="278" 
d="M-10 -17l208 714h90l-208 -714h-90z" />
    <glyph glyph-name="zero" unicode="0" 
d="M627 327c0 -102 -28.334 -183.996 -85.001 -245.996s-141.334 -93 -254.001 -93c-48 0 -89.667 8.66699 -125 26s-63.166 41.666 -83.499 72.999s-35.333 66.166 -45 104.499s-14.5 80.833 -14.5 127.5c0 47.333 6 92.166 18 134.499s29.667 80.666 53 114.999
s54.5 61.5 93.5 81.5s83.5 30 133.5 30c104.667 0 182.334 -32.333 233.001 -97s76 -150 76 -256zM402.999 266.004c0 20 -0.833984 41.668 -2.50098 65.001s-5 54.5 -10 93.5s-14.333 71 -28 96s-30.5 37.5 -50.5 37.5c-45.333 0 -68 -46.333 -68 -139
c0 -20.667 0.833008 -43.834 2.5 -69.501s5.33398 -58 11.001 -97s15.5 -71.167 29.5 -96.5s31.333 -38 52 -38c25.333 0 42.333 11.167 51 33.5s13 60.5 13 114.5z" />
    <glyph glyph-name="one" unicode="1" 
d="M442 586l0.000976562 -416.005c0 -9.33301 2 -17.166 6 -23.499s10.5 -11.333 19.5 -15s16.667 -6.16699 23 -7.5s15.833 -3 28.5 -5c38 -6 60.667 -11.667 68 -17c10 -7.33301 15 -20.666 15 -39.999c0 -22 -2.16699 -38.333 -6.5 -49s-12.833 -16 -25.5 -16
c-24.667 0 -61.667 0.5 -111 1.5s-86.333 1.5 -111 1.5s-61.667 -0.5 -111 -1.5s-86.333 -1.5 -111 -1.5c-40.667 0 -61 19 -61 57c0 24 5.5 40.333 16.5 49s33.833 14 68.5 16s56.334 16.333 65.001 43s13 75.667 13 147c0 92 -4 150.333 -12 175
c-2.66699 7.33301 -8.16699 13.166 -16.5 17.499s-16.333 7 -24 8s-19.167 1.83301 -34.5 2.5c-10.667 0.666992 -18 1.33398 -22 2.00098s-9.33301 2.83398 -16 6.50098s-11.334 9.83398 -14.001 18.501s-4 20.334 -4 35.001c0 17.333 8.5 30.833 25.5 40.5
s47.5 20.5 91.5 32.5c83.333 22 142.333 33 177 33c23.333 0 39.666 -6 48.999 -18s14 -37.333 14 -76z" />
    <glyph glyph-name="two" unicode="2" 
d="M19 86l125.001 120.002c41.333 40 76.5 81.167 105.5 123.5s43.5 78.166 43.5 107.499c0 28 -10.5 48.667 -31.5 62s-46.167 20 -75.5 20c-23.333 0 -44.333 -4.83301 -63 -14.5s-33.667 -19.5 -45 -29.5s-19.333 -15 -24 -15c-14.667 0 -22 11 -22 33
c0 30.667 8.5 58.5 25.5 83.5s39 44.667 66 59s55.167 25.333 84.5 33s57.666 11.5 84.999 11.5c60 0 110.833 -13.833 152.5 -41.5s62.5 -69.5 62.5 -125.5c0 -66.667 -23.833 -129.834 -71.5 -189.501s-104.167 -104.167 -169.5 -133.5c15.333 -5.33301 36 -8 62 -8
c50 0 96.167 6 138.5 18s74.833 23.833 97.5 35.5s34.667 17.5 36 17.5c16 0 24 -17.333 24 -52c0 -19.333 -5 -56.666 -15 -111.999c0 -1.33301 -0.833008 -6.83301 -2.5 -16.5s-3 -16 -4 -19s-2.5 -8.33301 -4.5 -16s-4.16699 -13.167 -6.5 -16.5l-8.5 -12
c-3.33301 -4.66699 -7.5 -7.83398 -12.5 -9.50098s-10.5 -2.5 -16.5 -2.5c-30 0 -75 0.5 -135 1.5s-105 1.5 -135 1.5s-75 -0.5 -135 -1.5s-105 -1.5 -135 -1.5c-22.667 0 -34 10 -34 30c0 14 12.667 33.667 38 59z" />
    <glyph glyph-name="three" unicode="3" 
d="M611 216c0 -52 -14.335 -95.666 -43.002 -130.999s-64.167 -60.333 -106.5 -75s-89.166 -22 -140.499 -22c-26 0 -55.167 2.83301 -87.5 8.5s-65.666 14.167 -99.999 25.5s-63 27.833 -86 49.5s-34.5 46.167 -34.5 73.5c0 22 2.33301 36.667 7 44s14 11 28 11
c6 0 17.5 -5 34.5 -15s39.833 -20 68.5 -30s60 -15 94 -15c39.333 0 72.833 8.83301 100.5 26.5s41.5 44.834 41.5 81.501c0 26 -6 46.333 -18 61s-25.333 23.667 -40 27s-28 7.66602 -40 12.999s-18 12.666 -18 21.999c0 6.66699 4.5 12.667 13.5 18s19.167 10 30.5 14
s21.5 11.333 30.5 22s13.5 24 13.5 40c0 28 -11.167 50 -33.5 66s-48.166 24 -77.499 24c-26.667 0 -48.834 -5.16699 -66.501 -15.5s-29.834 -21.5 -36.501 -33.5s-14.167 -23.167 -22.5 -33.5s-17.5 -15.5 -27.5 -15.5c-17.333 0 -32.166 12.5 -44.499 37.5
s-18.5 49.167 -18.5 72.5c0 25.333 12 46.5 36 63.5s55.167 28.667 93.5 35s68.833 10.333 91.5 12s45.334 2.5 68.001 2.5c78 0 141.167 -18 189.5 -54s72.5 -81.333 72.5 -136c0 -19.333 -7.16699 -39 -21.5 -59s-32.833 -31.333 -55.5 -34v-2
c29.333 -14.667 54.166 -37.667 74.499 -69s30.5 -68 30.5 -110z" />
    <glyph glyph-name="four" unicode="4" 
d="M157 265h173v160zM512 659l-0.000976562 -393.999h105c8.66699 0 14.334 -1.66699 17.001 -5s4 -9.66602 4 -18.999c0 -15.333 -4 -61 -12 -137c-1.33301 -10.667 -3.33301 -17.5 -6 -20.5s-9 -4.5 -19 -4.5h-93v-80c0 -18.667 -1.83301 -30.834 -5.5 -36.501
s-14.167 -10.834 -31.5 -15.501l-141 -42v174h-286c-12 0 -20.5 6 -25.5 18s-7.5 32.333 -7.5 61c0 74 7.33301 117.667 22 131l362 323c50.667 45.333 82 68 94 68c15.333 0 23 -7 23 -21z" />
    <glyph glyph-name="five" unicode="5" 
d="M102 394l46.9971 243.999c3.33301 20 11.333 30 24 30s31.334 -0.5 56.001 -1.5s43 -1.5 55 -1.5s30.333 0.5 55 1.5s43.334 1.5 56.001 1.5c23.333 0 49.666 2 78.999 6s45 6 47 6c10.667 0 16 -6.66699 16 -20c0 -14 -7.66699 -45.667 -23 -95
c-8 -27.333 -15.333 -43.666 -22 -48.999c-8 -6 -18.333 -9 -31 -9h-180c-6.66699 0 -11.667 -0.166992 -15 -0.5s-6.66602 -1.83301 -9.99902 -4.5s-5.33301 -6.66699 -6 -12l-7 -44c36 2.66699 67.333 4 94 4c84 0 149.5 -19.667 196.5 -59s70.5 -89.333 70.5 -150
c0 -17.333 -2.33301 -35.333 -7 -54s-15 -40.334 -31 -65.001s-36.833 -46.5 -62.5 -65.5s-62.167 -35.167 -109.5 -48.5s-102 -20 -164 -20c-156.667 0 -235 35.667 -235 107c0 43.333 9 75.833 27 97.5s35 32.5 51 32.5c6.66699 0 12.167 -3.5 16.5 -10.5
s8.83301 -15.5 13.5 -25.5s11.334 -20.167 20.001 -30.5s23.167 -19 43.5 -26s45.833 -10.5 76.5 -10.5c33.333 0 64.5 8.33301 93.5 25s43.5 41 43.5 73c0 30.667 -14.5 54.834 -43.5 72.501s-64.5 27.834 -106.5 30.501c-52 3.33301 -88.667 5 -110 5
c-14 0 -21 6.66699 -21 20c0 19.333 1 34.666 3 45.999z" />
    <glyph glyph-name="six" unicode="6" 
d="M617 255c0 -26 -2.66699 -50.832 -8 -74.499s-14.833 -47.5 -28.5 -71.5s-31.167 -44.667 -52.5 -62s-49.5 -31.5 -84.5 -42.5s-74.833 -16.5 -119.5 -16.5c-93.333 0 -165.666 23.5 -216.999 70.5s-77 117.833 -77 212.5c0 57.333 7.83301 109.833 23.5 157.5
s36 86.667 61 117s53.333 56 85 77s63 35.833 94 44.5s61.167 13 90.5 13c16 0 30.333 -1.16699 43 -3.5s22.334 -5.33301 29.001 -9s12.167 -7.66699 16.5 -12s7.16602 -8.33301 8.49902 -12s2 -6.83398 2 -9.50098c0 -12 -4.16699 -21.5 -12.5 -28.5
s-22.5 -14.5 -42.5 -22.5s-34.667 -14.667 -44 -20c-73.333 -42 -110 -75.333 -110 -100c0 -4.66699 2 -7 6 -7c1.33301 0 12.666 6.33301 33.999 19c18 10.667 45.333 16 82 16c40 0 75 -6.83301 105 -20.5s53 -32.167 69 -55.5s27.833 -48.333 35.5 -75s11.5 -55 11.5 -85
zM416 201.001c0 13.333 -3 31 -9 53s-17.167 44 -33.5 66s-35.5 33 -57.5 33c-22.667 0 -38.667 -8.33301 -48 -25s-14 -36 -14 -58c0 -40.667 9.66699 -76.5 29 -107.5s42 -46.5 68 -46.5c22.667 0 39.167 8.16699 49.5 24.5s15.5 36.5 15.5 60.5z" />
    <glyph glyph-name="seven" unicode="7" 
d="M260 287l114.999 134.997c29.333 34 44 54.667 44 62s-27.667 11 -83 11c-89.333 0 -147.333 -4.33301 -174 -13c-14 -4.66699 -28.167 -15.5 -42.5 -32.5s-26.166 -25.5 -35.499 -25.5c-12 0 -22 4.5 -30 13.5s-12 20.5 -12 34.5c0 18 4.33301 53 13 105
c6.66699 40.667 13 65.334 19 74.001c8 11.333 20.333 17 37 17c22.667 0 60.167 -0.5 112.5 -1.5s92.5 -1.5 120.5 -1.5c26.667 0 67 0.5 121 1.5s94.667 1.5 122 1.5c12 0 20.333 -1.83301 25 -5.5s7 -12.167 7 -25.5c0 -9.33301 -12.667 -39.333 -38 -90l-111 -216
c-28 -54 -49 -103.167 -63 -147.5s-31 -111.166 -51 -200.499c-1.33301 -4.66699 -2.5 -10.167 -3.5 -16.5s-1.83301 -11 -2.5 -14s-1.5 -6.16699 -2.5 -9.5s-2.33301 -5.5 -4 -6.5s-3.83398 -1.5 -6.50098 -1.5c-27.333 0 -70.5 10.167 -129.5 30.5
s-88.5 38.166 -88.5 53.499c0 26.667 12.833 65.334 38.5 116.001s59.834 101.334 102.501 152.001z" />
    <glyph glyph-name="eight" unicode="8" 
d="M390 509c0 17.333 -6.33203 30.665 -18.999 39.998s-28.667 14 -48 14c-14 0 -26.833 -4.16699 -38.5 -12.5s-17.5 -19.166 -17.5 -32.499c0 -18 7.66699 -32 23 -42s32.666 -15 51.999 -15c14 0 25.5 4.33301 34.5 13s13.5 20.334 13.5 35.001zM40.001 196.999
c0 36.667 8.83691 68.334 26.5039 95.001s43.5 45.667 77.5 57c-24 12 -43 30.667 -57 56s-21 52 -21 80c0 33.333 8.16699 63.166 24.5 89.499s37.666 46.833 63.999 61.5s54.666 25.667 84.999 33s61.5 11 93.5 11c28.667 0 55.667 -2.5 81 -7.5
s49.666 -13.333 72.999 -25s41.833 -28.5 55.5 -50.5s20.5 -48.333 20.5 -79c0 -26 -6.16699 -50 -18.5 -72s-29.833 -38.667 -52.5 -50c77.333 -46 116 -103.667 116 -173c0 -75.333 -27.667 -133.333 -83 -174s-127.333 -61 -216 -61c-48 0 -90.167 6.66699 -126.5 20
s-64.333 30.833 -84 52.5s-34.334 44 -44.001 67s-14.5 46.167 -14.5 69.5zM211.005 194.999c0 -24.667 9.66699 -45 29 -61s40.666 -24 63.999 -24c53.333 0 80 21.667 80 65c0 24.667 -15.667 44 -47 58s-58.666 21 -81.999 21c-14 0 -24.833 -6.16699 -32.5 -18.5
s-11.5 -25.833 -11.5 -40.5z" />
    <glyph glyph-name="nine" unicode="9" 
d="M620 362c0 -42.667 -4.33105 -82.3291 -12.998 -118.996s-22.667 -70.834 -42 -102.501s-43.5 -58.667 -72.5 -81s-65.167 -39.833 -108.5 -52.5s-92 -19 -146 -19c-16.667 0 -31.5 0.333008 -44.5 1s-28.333 2.16699 -46 4.5s-32.834 6.16602 -45.501 11.499
s-24.834 12.166 -36.501 20.499s-20.667 19.333 -27 33s-9.5 29.167 -9.5 46.5c0 24 7.33301 36 22 36c3.33301 0 18.333 -4.66699 45 -14c28 -9.33301 53.667 -14 77 -14c27.333 0 52.833 3.33301 76.5 10s42.667 14.667 57 24s26.666 19.166 36.999 29.499
s17.5 19 21.5 26s6 11.5 6 13.5c0 6.66699 -2.66699 10 -8 10c-0.666992 0 -2.66699 -0.833008 -6 -2.5l-15 -7.5l-18 -9c-29.333 -12.667 -54.333 -19 -75 -19c-58.667 0 -109 19.833 -151 59.5s-63 98.167 -63 175.5c0 79.333 25.833 142 77.5 188s117.5 69 197.5 69
c68 0 125.833 -15.167 173.5 -45.5s82.334 -68.833 104.001 -115.5s32.5 -99 32.5 -157zM396.002 397.005c0 34 -11.833 69.333 -35.5 106s-50.167 55 -79.5 55c-30 0 -45 -20.333 -45 -61c0 -20 4 -42.333 12 -67s20.833 -47.167 38.5 -67.5s37.167 -30.5 58.5 -30.5
c34 0 51 21.667 51 65z" />
    <glyph glyph-name="colon" unicode=":" horiz-adv-x="324" 
d="M271 104c0 -35.333 -10.667 -62.5 -32 -81.5s-48.666 -28.5 -81.999 -28.5c-29.333 0 -54 8.66699 -74 26s-30 40.666 -30 69.999c0 35.333 10.667 62.5 32 81.5s48.666 28.5 81.999 28.5c29.333 0 54 -8.66699 74 -26s30 -40.666 30 -69.999zM271 424
c0 -35.333 -10.667 -62.5 -32 -81.5s-48.666 -28.5 -81.999 -28.5c-29.333 0 -54 8.66699 -74 26s-30 40.666 -30 69.999c0 35.333 10.667 62.5 32 81.5s48.666 28.5 81.999 28.5c29.333 0 54 -8.66699 74 -26s30 -40.666 30 -69.999z" />
    <glyph glyph-name="semicolon" unicode=";" horiz-adv-x="324" 
d="M39 87c0 32.667 11.8369 59.667 35.5039 81s52.167 32 85.5 32c41.333 0 72.666 -14.833 93.999 -44.5s32 -63.834 32 -102.501c0 -63.333 -18.167 -115.666 -54.5 -156.999s-75.833 -62 -118.5 -62c-32.667 0 -49 14 -49 42c0 2.66699 0.5 5.5 1.5 8.5s2 5.5 3 7.5
s3 4.66699 6 8s5.16699 5.5 6.5 6.5s4.16602 3.5 8.49902 7.5s7.16602 6.33301 8.49902 7c22.667 20 34 39 34 57c0 4.66699 -2.16699 8.5 -6.5 11.5s-10.833 6.16699 -19.5 9.5s-15.334 6.33301 -20.001 9c-14 8 -25.333 19.167 -34 33.5s-13 29.5 -13 45.5zM278.004 424
c0 -35.333 -10.667 -62.5 -32 -81.5s-48.666 -28.5 -81.999 -28.5c-29.333 0 -54 8.66699 -74 26s-30 40.666 -30 69.999c0 35.333 10.667 62.5 32 81.5s48.666 28.5 81.999 28.5c29.333 0 54 -8.66699 74 -26s30 -40.666 30 -69.999z" />
    <glyph glyph-name="less" unicode="&#x3c;" horiz-adv-x="600" 
d="M554 107v-115l-508 213v94l508 213v-115l-352 -145z" />
    <glyph glyph-name="equal" unicode="=" horiz-adv-x="600" 
d="M556 420v-120h-512v120h512zM556 204v-120h-512v120h512z" />
    <glyph glyph-name="greater" unicode="&#x3e;" horiz-adv-x="600" 
d="M46 107l352 145l-352 145v115l508 -213v-94l-508 -213v115z" />
    <glyph glyph-name="question" unicode="?" horiz-adv-x="426" 
d="M173 230c-16.667 0 -28.833 10.668 -36.5 32.001s-11.5 45.333 -11.5 72c0 24 7.83301 58.167 23.5 102.5s23.5 72.833 23.5 85.5c0 27.333 -17.667 41 -53 41c-6 0 -15.167 -1.33301 -27.5 -4s-21.833 -4 -28.5 -4c-19.333 0 -29 13 -29 39c0 30 22.167 54.667 66.5 74
s83.833 29 118.5 29c50 0 90 -11.833 120 -35.5s45 -60.167 45 -109.5c0 -35.333 -6.83301 -66 -20.5 -92s-29.167 -45.5 -46.5 -58.5s-36.5 -29.667 -57.5 -50s-36.5 -41.833 -46.5 -64.5c-2 -4.66699 -4.33301 -11.167 -7 -19.5s-4.83398 -14.833 -6.50098 -19.5
s-4.66699 -8.83398 -9 -12.501s-10.166 -5.5 -17.499 -5.5zM281.001 89.001c0 -30.667 -8.66699 -54.167 -26 -70.5s-42 -24.5 -74 -24.5s-56.667 8 -74 24s-26 39.667 -26 71c0 30.667 8.66699 54.167 26 70.5s42 24.5 74 24.5s56.667 -8 74 -24s26 -39.667 26 -71z" />
    <glyph glyph-name="at" unicode="@" horiz-adv-x="800" 
d="M502 399c0 23.333 -2.83203 40.167 -8.49902 50.5s-15.834 15.5 -30.501 15.5c-24 0 -48.667 -17 -74 -51s-38 -73 -38 -117c0 -25.333 4.16699 -46 12.5 -62s17.833 -24 28.5 -24c26.667 0 50 15.5 70 46.5s33.333 78.167 40 141.5zM527.001 480.001l8.99805 33.998h79
l-55 -227c-2.66699 -16 -4 -29.333 -4 -40c0 -34 9 -51 27 -51c20.667 0 41.5 22 62.5 66s31.5 87 31.5 129c0 60 -24 112.833 -72 158.5s-110 68.5 -186 68.5c-28 0 -55.833 -5.33301 -83.5 -16s-54.5 -27.167 -80.5 -49.5s-47 -54.166 -63 -95.499s-24 -89 -24 -143
c0 -71.333 26.833 -131.166 80.5 -179.499s113.834 -72.5 180.501 -72.5c74.667 0 143 16.333 205 49l10 -63c-76 -43.333 -147.333 -65 -214 -65c-64 0 -122 11.167 -174 33.5s-93 50.833 -123 85.5s-52.833 71.167 -68.5 109.5s-23.5 75.833 -23.5 112.5
c0 109.333 36.833 198.833 110.5 268.5s162.834 104.5 267.501 104.5c96 0 176.667 -29 242 -87s98 -130.667 98 -218c0 -36.667 -7.16699 -73.334 -21.5 -110.001s-36.666 -68.5 -66.999 -95.5s-64.833 -40.5 -103.5 -40.5c-30 0 -53.333 9.33301 -70 28
s-24.667 34.334 -24 47.001h-2c-6.66699 -18.667 -22.834 -35.667 -48.501 -51s-48.834 -23 -69.501 -23c-32 0 -56.667 12.5 -74 37.5s-26 54.5 -26 88.5c0 24 4.33301 50.167 13 78.5s21 56 37 83s37.667 49.5 65 67.5s57.333 27 90 27c8 0 15 -0.833008 21 -2.5
s10.833 -3.16699 14.5 -4.5s7.66699 -4.33301 12 -9s7 -7.83398 8 -9.50098l7 -12c3.66699 -6.33301 5.83398 -10.166 6.50098 -11.499z" />
    <glyph glyph-name="A" unicode="A" horiz-adv-x="759" 
d="M255 289h114c-6 26.667 -14.5 53.167 -25.5 79.5s-21.5 39.5 -31.5 39.5s-20.5 -13.167 -31.5 -39.5s-19.5 -52.833 -25.5 -79.5zM78 168l189.999 457.999c14 34 26.333 54.333 37 61s35 10 73 10s62.333 -3.33301 73 -10s23 -27 37 -61l205 -464
c4.66699 -10.667 12.667 -22.667 24 -36s23.333 -23.666 36 -30.999c0.666992 -0.666992 2.16699 -1.5 4.5 -2.5s3.83301 -1.83301 4.5 -2.5s1.83398 -1.5 3.50098 -2.5s2.83398 -1.83301 3.50098 -2.5s1.66699 -1.5 3 -2.5s2.16602 -2.16699 2.49902 -3.5
s0.833008 -2.66602 1.5 -3.99902s1.16699 -3 1.5 -5l1 -6c0.333008 -2 0.5 -4.33301 0.5 -7c0 -22.667 -4.83301 -38.334 -14.5 -47.001s-28.167 -13 -55.5 -13c-9.33301 0 -30.5 0.5 -63.5 1.5s-61.5 1.5 -85.5 1.5c-23.333 0 -51 -0.5 -83 -1.5s-54 -1.5 -66 -1.5
c-14 0 -24.833 5 -32.5 15s-11.5 21.667 -11.5 35c0 9.33301 1 16.833 3 22.5s4.16699 9.83398 6.5 12.501s7.5 7 15.5 13c1.33301 0.666992 3.5 2.16699 6.5 4.5s4.83301 4 5.5 5s2.16699 2.5 4.5 4.5s3.83301 3.33301 4.5 4s1.83398 2 3.50098 4s2.66699 3.83301 3 5.5
s0.833008 3.5 1.5 5.5s1.16699 4.16699 1.5 6.5s0.5 4.83301 0.5 7.5c0 8 -2.66699 15.167 -8 21.5s-12.333 9.5 -21 9.5h-154c-22 0 -33 -15 -33 -45c0 -10 2.33301 -17.167 7 -21.5s14 -8.16602 28 -11.499c14 -4 22.667 -8.33301 26 -13s5 -16.334 5 -35.001
c0 -33.333 -19.667 -50 -59 -50c-10.667 0 -26.667 0.5 -48 1.5s-37.333 1.5 -48 1.5c-11.333 0 -27.666 -0.5 -48.999 -1.5s-37.333 -1.5 -48 -1.5c-16.667 0 -27.834 3.16699 -33.501 9.5s-8.5 18.5 -8.5 36.5c0 27.333 10 44.666 30 51.999c18 6 31.667 14.167 41 24.5
s18.666 26.5 27.999 48.5z" />
    <glyph glyph-name="B" unicode="B" horiz-adv-x="778" 
d="M93 151l-0.000976562 398.006c0 9.33301 -1.5 16.666 -4.5 21.999s-6.16699 8.66602 -9.5 9.99902s-8.33301 2.66602 -15 3.99902s-11.667 2.66602 -15 3.99902s-6.5 5.16602 -9.5 11.499s-4.5 14.833 -4.5 25.5c0 22 3 37 9 45s18 12 36 12c22 0 55.5 -0.5 100.5 -1.5
s78.833 -1.5 101.5 -1.5c20.667 0 51.5 0.5 92.5 1.5s71.5 1.5 91.5 1.5c57.333 0 108.5 -15.333 153.5 -46s67.5 -73.334 67.5 -128.001c0 -68.667 -28.333 -112 -85 -130v-2c40.667 -10.667 70.5 -32 89.5 -64s28.5 -70.667 28.5 -116
c0 -33.333 -6.16699 -62.5 -18.5 -87.5s-27.833 -44.5 -46.5 -58.5s-42 -25.167 -70 -33.5s-54.667 -13.833 -80 -16.5s-54 -4 -86 -4c-19.333 0 -48.666 0.5 -87.999 1.5s-68.666 1.5 -87.999 1.5c-20 0 -49.5 -0.5 -88.5 -1.5s-68.5 -1.5 -88.5 -1.5
c-11.333 0 -19.833 3 -25.5 9s-8.83398 12 -9.50098 18s-1 14.333 -1 25c0 8.66699 0.666992 15.5 2 20.5s4.83301 9.16699 10.5 12.5s9.5 5.5 11.5 6.5s8.66699 3.16699 20 6.5c8 2.66699 13.167 8 15.5 16s3.5 21.333 3.5 40zM459.999 209.006
c0 35.333 -11.333 62.834 -34 82.501s-47.667 29.5 -75 29.5c-7.33301 0 -11.833 -3.66699 -13.5 -11s-2.5 -25.333 -2.5 -54c0 -12.667 0.5 -31.834 1.5 -57.501s1.5 -43.167 1.5 -52.5c0 -20.667 14 -31 42 -31c53.333 0 80 31.333 80 94zM334.999 552.007v-103
c0 -9.33301 2.33301 -15.333 7 -18s14 -4 28 -4c46 0 69 24.333 69 73c0 22.667 -7.66699 40.5 -23 53.5s-34 19.5 -56 19.5c-16.667 0 -25 -7 -25 -21z" />
    <glyph glyph-name="C" unicode="C" horiz-adv-x="685" 
d="M25 334c0 47.333 6.33008 91.8379 18.9971 133.505s31.834 80 57.501 115s60.667 62.833 105 83.5s95.5 31 153.5 31c28.667 0 62.334 -2.66699 101.001 -8c33.333 -6 52 -9 56 -9c13.333 0 24.666 2 33.999 6c8 4 15.333 6 22 6c20.667 0 34.5 -6.5 41.5 -19.5
s12.833 -33.5 17.5 -61.5c0.666992 -3.33301 1 -5.66602 1 -6.99902c8.66699 -50.667 13 -91.334 13 -122.001c0 -32 -17.667 -48 -53 -48c-8 0 -19.167 7.5 -33.5 22.5s-28.333 31.333 -42 49s-31.334 34 -53.001 49s-43.5 22.5 -65.5 22.5
c-28.667 0 -52.167 -13.667 -70.5 -41s-30.166 -55.5 -35.499 -84.5s-8 -57.5 -8 -85.5c0 -64 13.5 -122.5 40.5 -175.5s62.833 -79.5 107.5 -79.5c26 0 48.5 5.66699 67.5 17s32.833 23.666 41.5 36.999s18.334 25.666 29.001 36.999s21.334 17 32.001 17
c12.667 0 22.167 -4 28.5 -12s10 -15.833 11 -23.5s1.5 -18.5 1.5 -32.5c0 -13.333 -0.166992 -23.833 -0.5 -31.5s-1.33301 -17.834 -3 -30.501s-4.33398 -22.834 -8.00098 -30.501s-9.16699 -15.5 -16.5 -23.5s-16.333 -14.333 -27 -19c-51.333 -22 -125.333 -33 -222 -33
c-58.667 0 -110.667 10 -156 30s-81.166 47 -107.499 81s-46 71.167 -59 111.5s-19.5 83.166 -19.5 128.499z" />
    <glyph glyph-name="D" unicode="D" horiz-adv-x="796" 
d="M85 194l0.00195312 289c0 34 -2.33301 57.833 -7 71.5s-12.667 23.834 -24 30.501c-1.33301 0.666992 -4.16602 1.83398 -8.49902 3.50098s-7.33301 3.16699 -9 4.5s-3.5 4 -5.5 8s-3 9.33301 -3 16c0 16.667 0.5 28.667 1.5 36s4.16699 14.166 9.5 20.499
s13.666 9.5 24.999 9.5c20 0 49.667 -0.5 89 -1.5s68.666 -1.5 87.999 -1.5s48.666 0.5 87.999 1.5s69 1.5 89 1.5c102.667 0 186.167 -29.833 250.5 -89.5s96.5 -140.834 96.5 -243.501c-1.33301 -108 -31.5 -193.833 -90.5 -257.5s-142.167 -95.5 -249.5 -95.5
c-20.667 0 -52 0.5 -94 1.5s-73.667 1.5 -95 1.5s-53 -0.5 -95 -1.5s-73.333 -1.5 -94 -1.5c-16 0 -24 16 -24 48c0 16.667 2 27.834 6 33.501s13.333 11.167 28 16.5c10 4 17.167 12.667 21.5 26s6.5 37.666 6.5 72.999zM327.002 436l0.00195312 -197.999
c0 -46.667 4.16699 -78.834 12.5 -96.501s22.166 -26.5 41.499 -26.5c24.667 0 45.5 6.66699 62.5 20s29.833 31 38.5 53s14.667 44 18 66s5 45 5 69c0 71.333 -14.333 130.833 -43 178.5s-65.334 71.5 -110.001 71.5c-10 0 -16.667 -10 -20 -30s-5 -55.667 -5 -107z" />
    <glyph glyph-name="E" unicode="E" horiz-adv-x="704" 
d="M495 420l-0.000976562 -179.998c0 -15.333 -2.5 -25.666 -7.5 -30.999s-16.167 -8 -33.5 -8c-20.667 0 -34.334 10.667 -41.001 32c-9.33301 32 -18.666 52.333 -27.999 61s-24.333 13 -45 13l5 -139c0.666992 -18 6.5 -31.333 17.5 -40s24.833 -13 41.5 -13
c36.667 0 67.834 4.66699 93.501 14s44.334 20.5 56.001 33.5s21.167 26.167 28.5 39.5s14.666 24.666 21.999 33.999s16.333 14 27 14c26 0 39 -16 39 -48c0 -4 -0.166992 -8.33301 -0.5 -13s-0.833008 -9.66699 -1.5 -15s-1 -9.66602 -1 -12.999l-10 -122
c-2.66699 -18.667 -7 -30.334 -13 -35.001s-18.333 -7 -37 -7c-28.667 0 -71.334 0.5 -128.001 1.5s-99 1.5 -127 1.5c-170 -2 -261 -3 -273 -3c-16.667 0 -28.167 3.33301 -34.5 10s-9.5 17 -9.5 31c0 6 0.333008 11.167 1 15.5s1.33398 8.16602 2.00098 11.499
s2 6.33301 4 9l4.5 6c1 1.33301 3.33301 3 7 5s6 3.16699 7 3.5s4.16699 1.33301 9.5 3s8.66602 2.83398 9.99902 3.50098c10 4 16 19.333 18 46s3 93 3 199s-1 172.333 -3 199s-8 42 -18 46c-1.33301 0.666992 -4.66602 1.83398 -9.99902 3.50098s-8.5 2.66699 -9.5 3
s-3.33301 1.5 -7 3.5s-6 3.66699 -7 5l-4.5 6c-2 2.66699 -3.33301 5.66699 -4 9s-1.33398 7.16602 -2.00098 11.499s-1 9.5 -1 15.5c0 14 3.16699 24.333 9.5 31s17.833 10 34.5 10c28.667 0 71.667 -0.5 129 -1.5s100.333 -1.5 129 -1.5s71.667 0.5 129 1.5
s100.333 1.5 129 1.5c20 0 32.667 -4.5 38 -13.5s8 -29.5 8 -61.5v-88c0 -33.333 -1.66699 -53.5 -5 -60.5s-13.666 -10.5 -30.999 -10.5c-12.667 0 -22 1.66699 -28 5s-10 10.666 -12 21.999c-13.333 64.667 -68.666 97 -165.999 97c-28.667 0 -47 -4.83301 -55 -14.5
s-12 -33.834 -12 -72.501c0 -25.333 2 -42.333 6 -51s12.667 -13 26 -13c14 0 24.5 3.5 31.5 10.5s11.167 14.5 12.5 22.5s5.66602 15.5 12.999 22.5s18.333 10.5 33 10.5c17.333 0 28.5 -4.16699 33.5 -12.5s7.5 -26.833 7.5 -55.5z" />
    <glyph glyph-name="F" unicode="F" 
d="M646 634l3 -129.003c0.666992 -23.333 -1.83301 -39.166 -7.5 -47.499s-16.5 -12.5 -32.5 -12.5s-27.667 4.16699 -35 12.5s-12.666 18.5 -15.999 30.5s-8 24.167 -14 36.5s-18.667 22.666 -38 30.999s-46 12.5 -80 12.5c-41.333 0 -66 -3.83301 -74 -11.5
s-12 -28.167 -12 -61.5c0 -36.667 0.833008 -59.5 2.5 -68.5s6.83398 -13.5 15.501 -13.5c13.333 0 24 4.16699 32 12.5s13.167 17.333 15.5 27s7.5 18.667 15.5 27s18.667 12.5 32 12.5c16 0 28.667 -3.5 38 -10.5s14 -16.833 14 -29.5c0 -10 -0.5 -26.667 -1.5 -50
s-1.5 -43.333 -1.5 -60c0 -17.333 0.5 -35.666 1.5 -54.999s1.5 -32.333 1.5 -39c0 -20.667 -3.33301 -35.167 -10 -43.5s-17.334 -12.5 -32.001 -12.5c-19.333 0 -33.333 5.66699 -42 17s-12.834 23.666 -12.501 36.999s-2.66699 25.666 -9 36.999s-17.5 17 -33.5 17
c-12 0 -19.333 -5.33301 -22 -16s-4 -32.667 -4 -66c0 -48.667 6 -82.667 18 -102c4.66699 -8 14.5 -13.667 29.5 -17s28.167 -8.66602 39.5 -15.999s17 -20 17 -38c0 -20 -2 -33 -6 -39s-14.333 -9 -31 -9s-42 0.5 -76 1.5s-59.667 1.5 -77 1.5s-43 -0.5 -77 -1.5
s-59.333 -1.5 -76 -1.5c-16 0 -28 0.5 -36 1.5s-15.5 5 -22.5 12s-10.5 17.167 -10.5 30.5c0 8.66699 0.333008 16 1 22s2.33398 10.667 5.00098 14l5.5 7c1 1.33301 4 3.33301 9 6s8.5 4.33398 10.5 5.00098c16.667 10 26.667 27.5 30 52.5s5 89.167 5 192.5
c0 106 -1.16699 172.333 -3.5 199s-9.5 42 -21.5 46c-1.33301 0.666992 -4.66602 1.83398 -9.99902 3.50098s-8.5 2.66699 -9.5 3s-3.33301 1.5 -7 3.5s-6 3.66699 -7 5l-4.5 6c-2 2.66699 -3.33301 5.66699 -4 9s-1.33398 7.16602 -2.00098 11.499s-1 9.5 -1 15.5
c0 14 3.16699 24.333 9.5 31s17.833 10 34.5 10c20 0 57.833 -0.5 113.5 -1.5s99.167 -1.5 130.5 -1.5c29.333 0 73.666 0.5 132.999 1.5s104 1.5 134 1.5c16 0 27.667 -0.666992 35 -2s13.833 -5.66602 19.5 -12.999s8.5 -18.666 8.5 -33.999z" />
    <glyph glyph-name="G" unicode="G" horiz-adv-x="759" 
d="M675 620l0.00292969 -70c0 -46.667 -1.66699 -78 -5 -94s-13 -24 -29 -24c-13.333 0 -25.333 5 -36 15s-20.834 22 -30.501 36s-20.834 28.167 -33.501 42.5s-31.167 26.5 -55.5 36.5s-53.166 15 -86.499 15c-30 0 -54.167 -10.5 -72.5 -31.5s-30.166 -44 -35.499 -69
s-8 -52.167 -8 -81.5c0 -28 1.5 -55.167 4.5 -81.5s8.66699 -55.833 17 -88.5s22.5 -59 42.5 -79s44.333 -30 73 -30c17.333 0 27.833 5.16699 31.5 15.5s5.5 34.833 5.5 73.5c0 15.333 -1.16699 27.5 -3.5 36.5s-4.33301 14.667 -6 17s-5.83398 4.66602 -12.501 6.99902
s-10.667 3.83301 -12 4.5l-7 3.5c-3.33301 1.66699 -5.83301 2.83398 -7.5 3.50098s-3.83398 1.83398 -6.50098 3.50098s-4.66699 3.33398 -6 5.00098l-5 6.5c-2 2.66699 -3.33301 5.66699 -4 9s-1.33398 7.16602 -2.00098 11.499s-1 9.16602 -1 14.499
c0 32 14.667 48 44 48c14 0 35.167 -0.5 63.5 -1.5s49.833 -1.5 64.5 -1.5s36 0.5 64 1.5s49.333 1.5 64 1.5c27.333 0 45.666 -3 54.999 -9s14 -19.667 14 -41c0 -30 -9.66699 -48.333 -29 -55c-14 -4.66699 -22.333 -9.66699 -25 -15c-2 -4 -3 -9.33301 -3 -16
c0 -10.667 0.5 -36 1.5 -76s1.5 -66.667 1.5 -80c0 -16 -3.5 -27 -10.5 -33s-18.833 -9 -35.5 -9c-24 0 -70.5 -9.66699 -139.5 -29s-125.833 -29 -170.5 -29c-54.667 0 -103 10 -145 30s-75.5 47 -100.5 81s-43.667 71.833 -56 113.5s-18.5 86.167 -18.5 133.5
c0 105.333 29.333 191 88 257s143.334 99 254.001 99c42.667 0 86.667 -4 132 -12c46.667 -8 71 -12 73 -12c8 0 18.667 3.33301 32 10c14.667 6 25.667 9 33 9c14 0 24.167 -8 30.5 -24s9.5 -32 9.5 -48z" />
    <glyph glyph-name="H" unicode="H" horiz-adv-x="907" 
d="M382 421h134.009c22.667 0 36.334 5 41.001 15s7 36 7 78c0 21.333 -1.83301 38.166 -5.5 50.499s-8 20.666 -13 24.999s-10 7.83301 -15 10.5s-9.33301 6.5 -13 11.5s-5.5 12.833 -5.5 23.5c0 32 19.667 48 59 48c9.33301 0 28 -0.5 56 -1.5s50 -1.5 66 -1.5
c15.333 0 38 0.5 68 1.5s52.333 1.5 67 1.5c15.333 0 25.666 -4.16699 30.999 -12.5s8 -21.5 8 -39.5c0 -15.333 -2 -26 -6 -32s-10.333 -10.667 -19 -14c-16.667 -6.66699 -26.834 -25.167 -30.501 -55.5s-5.5 -93.5 -5.5 -189.5c0 -84.667 2 -144 6 -178
s15 -56.333 33 -67c0.666992 -0.666992 3.16699 -2 7.5 -4s7.16602 -3.83301 8.49902 -5.5l6 -7.5c2.66699 -3.33301 4.5 -7.66602 5.5 -12.999s1.5 -12 1.5 -20c0 -17.333 -2.33301 -29.666 -7 -36.999s-14.334 -11 -29.001 -11c-16 0 -40.333 0.5 -73 1.5
s-57.334 1.5 -74.001 1.5c-17.333 0 -41.5 -0.5 -72.5 -1.5s-52.5 -1.5 -64.5 -1.5c-16.667 0 -28 3.83301 -34 11.5s-9 22.834 -9 45.501c0 15.333 8.33301 29.333 25 42c12 9.33301 19.667 21.666 23 36.999s5 50.333 5 105c0 26 -2.16699 42.833 -6.5 50.5
s-12.833 11.5 -25.5 11.5h-166c-12.667 0 -21.334 -3.83301 -26.001 -11.5s-7 -24.5 -7 -50.5c0 -38.667 2.33301 -68.167 7 -88.5s10 -33.333 16 -39s15.333 -10.834 28 -15.501c18.667 -7.33301 30.167 -13.666 34.5 -18.999s6.5 -16.666 6.5 -33.999
s-2.66699 -29.166 -8 -35.499s-16 -9.5 -32 -9.5c-14 0 -38.167 0.5 -72.5 1.5s-60.833 1.5 -79.5 1.5c-16.667 0 -44 -0.5 -82 -1.5s-68.667 -1.5 -92 -1.5c-14.667 0 -24.334 3.66699 -29.001 11s-7 19.666 -7 36.999c0 8 0.5 14.667 1.5 20s2.83301 9.66602 5.5 12.999
l6 7.5c1.33301 1.66699 4.16602 3.5 8.49902 5.5s6.83301 3.33301 7.5 4c18 10.667 29 33 33 67s6 93.333 6 178c0 96 -1.83301 159.167 -5.5 189.5s-13.834 48.833 -30.501 55.5c-8.66699 3.33301 -15 8 -19 14s-6 16.667 -6 32c0 18 2.66699 31.167 8 39.5
s15.666 12.5 30.999 12.5c24 0 52 -0.5 84 -1.5s54 -1.5 66 -1.5c13.333 0 34.833 0.5 64.5 1.5s53.5 1.5 71.5 1.5c19.333 0 32.833 -2.66699 40.5 -8s11.5 -18.666 11.5 -39.999c0 -14.667 -3.83301 -25 -11.5 -31s-16.167 -9.5 -25.5 -10.5s-17.833 -7.83301 -25.5 -20.5
s-11.5 -32.334 -11.5 -59.001c0 -42 2.5 -68 7.5 -78s18.833 -15 41.5 -15z" />
    <glyph glyph-name="I" unicode="I" horiz-adv-x="463" 
d="M412 49c0 -20 -3.00098 -33.6689 -9.00098 -41.002s-16.333 -11 -31 -11c-16 0 -40.167 0.5 -72.5 1.5s-56.5 1.5 -72.5 1.5s-40.167 -0.5 -72.5 -1.5s-56.5 -1.5 -72.5 -1.5c-18.667 0 -32 3.33301 -40 10s-12 21 -12 43c0 16 2.5 27 7.5 33s10.5 8.83301 16.5 8.5
s12 3.83398 18 12.501s10 22.667 12 42c4 44.667 6 111 6 199c0 80.667 -2.33301 147 -7 199c-1.33301 13.333 -4.66602 23.5 -9.99902 30.5s-11 11.5 -17 13.5s-11.5 6.66699 -16.5 14s-7.5 18.333 -7.5 33c0 20.667 4.83301 33.834 14.5 39.501s25.834 8.5 48.501 8.5
c12.667 0 31.5 -0.5 56.5 -1.5s43.833 -1.5 56.5 -1.5s31.5 0.5 56.5 1.5s43.833 1.5 56.5 1.5c20.667 0 36.167 -3.16699 46.5 -9.5s15.5 -19.833 15.5 -40.5c0 -14 -2.33301 -24.667 -7 -32s-9.83398 -11.833 -15.501 -13.5s-10.667 -6 -15 -13s-6.5 -17.167 -6.5 -30.5
c-4.66699 -52 -7 -118.333 -7 -199c0 -88 2 -154.333 6 -199c2 -18 7 -30.833 15 -38.5s16.333 -11.5 25 -11.5s16.5 -3.5 23.5 -10.5s10.5 -19.167 10.5 -36.5z" />
    <glyph glyph-name="J" unicode="J" horiz-adv-x="444" 
d="M123 69l0.00488281 453.999c0 18 -2.83301 31.5 -8.5 40.5s-12.334 14.5 -20.001 16.5s-15.5 4.16699 -23.5 6.5s-14.833 8 -20.5 17s-8.5 22.833 -8.5 41.5c0 15.333 2.66699 25.5 8 30.5s13.666 7.5 24.999 7.5c14.667 0 40 -0.5 76 -1.5s63.667 -1.5 83 -1.5
c16 0 40.333 0.5 73 1.5s57 1.5 73 1.5c18.667 0 30.667 -2.16699 36 -6.5s8 -15.166 8 -32.499c0 -16.667 -2 -28.667 -6 -36s-8.83301 -12 -14.5 -14s-11.5 -4.33301 -17.5 -7s-11 -10.167 -15 -22.5s-6 -30.166 -6 -53.499v-285c0 -40.667 -0.333008 -72 -1 -94
s-3.83398 -49.833 -9.50098 -83.5s-14.167 -63.834 -25.5 -90.501c-22.667 -53.333 -57.834 -94.666 -105.501 -123.999s-97.167 -44 -148.5 -44c-88 0 -132 27.333 -132 82c0 24.667 7.83301 54.5 23.5 89.5s34.167 52.5 55.5 52.5c11.333 0 19.666 -5.16699 24.999 -15.5
s8.5 -21.5 9.5 -33.5s3.66699 -23.167 8 -33.5s11.5 -15.5 21.5 -15.5c15.333 0 25.333 11.667 30 35s7 62.666 7 117.999z" />
    <glyph glyph-name="K" unicode="K" horiz-adv-x="815" 
d="M516 20l-114.998 197.001c-15.333 26 -27.333 39 -36 39c-19.333 0 -29 -23.667 -29 -71c0 -40 3.66699 -65 11 -75c2 -2.66699 5 -4.83398 9 -6.50098s9 -3.16699 15 -4.5s10.667 -2.66602 14 -3.99902c18 -7.33301 27 -22.666 27 -45.999c0 -18 -3 -31.167 -9 -39.5
s-16.333 -12.5 -31 -12.5c-16 0 -40.167 0.5 -72.5 1.5s-56.5 1.5 -72.5 1.5s-40.167 -0.5 -72.5 -1.5s-56.5 -1.5 -72.5 -1.5c-18.667 0 -32 3.16699 -40 9.5s-12 20.166 -12 41.499c0 16 2.5 27.167 7.5 33.5s10.5 9.83301 16.5 10.5s12 5.16699 18 13.5
s10 21.833 12 40.5c4 42.667 6 107.667 6 195c0 83.333 -2.33301 151 -7 203c-1.33301 14 -4.83301 24.333 -10.5 31s-11.5 10.667 -17.5 12s-11.333 5.83301 -16 13.5s-7 19.167 -7 34.5c0 20.667 4.83301 33.834 14.5 39.501s25.834 8.5 48.501 8.5
c12.667 0 31.5 -0.5 56.5 -1.5s43.833 -1.5 56.5 -1.5s31.5 0.5 56.5 1.5s43.833 1.5 56.5 1.5c20.667 0 36.167 -3.16699 46.5 -9.5s15.5 -19.833 15.5 -40.5c0 -15.333 -2.33301 -26 -7 -32s-14 -11.333 -28 -16c-7.33301 -2.66699 -11.833 -9.83398 -13.5 -21.501
s-2.5 -34.167 -2.5 -67.5c0 -71.333 3.33301 -107 10 -107c7.33301 0 35.833 27.667 85.5 83s74.5 87.666 74.5 96.999c0 6 -2.5 10.833 -7.5 14.5s-10.5 6.33398 -16.5 8.00098s-11.5 5.5 -16.5 11.5s-7.5 14.667 -7.5 26c0 22.667 4.16699 37.334 12.5 44.001
s23.833 10 46.5 10c11.333 0 28.666 -0.5 51.999 -1.5s40.666 -1.5 51.999 -1.5s28.666 0.5 51.999 1.5s40.666 1.5 51.999 1.5c16.667 0 28.667 -0.5 36 -1.5s13.833 -5 19.5 -12s8.5 -17.833 8.5 -32.5c0 -15.333 -3.66699 -26.666 -11 -33.999s-22.333 -13.333 -45 -18
c-13.333 -2.66699 -30.333 -12.834 -51 -30.501s-44.667 -40.5 -72 -68.5s-46.333 -47 -57 -57l117 -183c33.333 -50.667 59.5 -86.834 78.5 -108.501s36.833 -35.834 53.5 -42.501c18 -6.66699 27 -23 27 -49c0 -16.667 -3 -29 -9 -37s-17 -12 -33 -12
c-12.667 0 -31 0.5 -55 1.5s-42.333 1.5 -55 1.5c-12 0 -30.5 -0.5 -55.5 -1.5s-44.833 -1.5 -59.5 -1.5c-13.333 0 -22.166 1.16699 -26.499 3.5s-9.5 8.83301 -15.5 19.5z" />
    <glyph glyph-name="L" unicode="L" horiz-adv-x="685" 
d="M336 491l0.00488281 -225.002c0 -27.333 0.166992 -47.833 0.5 -61.5s1.66602 -27.167 3.99902 -40.5s4.66602 -22.166 6.99902 -26.499s7.16602 -8.5 14.499 -12.5s14.666 -6.16699 21.999 -6.5s18.666 -0.5 33.999 -0.5c30 0 55.167 4.66699 75.5 14
s35.5 20.666 45.5 33.999s18.667 26.833 26 40.5s15.666 25.167 24.999 34.5s21 14 35 14s23.667 -3.5 29 -10.5s8 -18.167 8 -33.5c0 -17.333 -0.833008 -35.5 -2.5 -54.5s-3.83398 -40.167 -6.50098 -63.5l-6 -53c-1.33301 -18 -4.33301 -29.667 -9 -35s-15 -8 -31 -8
c-30 0 -75 0.5 -135 1.5s-105 1.5 -135 1.5c-30.667 0 -75.167 -0.5 -133.5 -1.5s-100.5 -1.5 -126.5 -1.5c-15.333 0 -25.833 3.33301 -31.5 10s-8.5 20.334 -8.5 41.001c0 14 2.83301 24 8.5 30s12 9.66699 19 11s13.333 6.83301 19 16.5s8.83398 24.5 9.50098 44.5
c0.666992 28 1 91.333 1 190c0 12 -0.333008 39 -1 81s-0.666992 75.333 0 100c0.666992 23.333 -2 40.5 -8 51.5s-12.5 16.833 -19.5 17.5s-13.5 3.83398 -19.5 9.50098s-9 15.834 -9 30.501c0 22.667 4.16699 37.167 12.5 43.5s23.5 9.5 45.5 9.5
c14 0 35.333 -0.5 64 -1.5s50.334 -1.5 65.001 -1.5s36.334 0.5 65.001 1.5s50 1.5 64 1.5c12.667 0 22.5 -0.666992 29.5 -2s13.333 -5 19 -11s8.5 -15 8.5 -27c0 -8.66699 -0.666992 -15.834 -2 -21.501s-6 -12.167 -14 -19.5s-19.333 -13 -34 -17
c-10.667 -3.33301 -17.334 -11.5 -20.001 -24.5s-4 -36.167 -4 -69.5z" />
    <glyph glyph-name="M" unicode="M" horiz-adv-x="1000" 
d="M382 46l-119.998 226.002c-21.333 40.667 -34.333 61 -39 61c-2 0 -3.66699 -0.5 -5 -1.5s-2.33301 -2.5 -3 -4.5l-2 -6c-0.666992 -2 -1.16699 -4.5 -1.5 -7.5s-0.5 -5.66699 -0.5 -8s-0.166992 -5.16602 -0.5 -8.49902s-0.5 -5.66602 -0.5 -6.99902
c-0.666992 -10 -1 -55 -1 -135c0 -41.333 14.667 -63.333 44 -66c23.333 -2 35 -16.667 35 -44c0 -32 -12.333 -48 -37 -48c-11.333 0 -28 0.5 -50 1.5s-38.667 1.5 -50 1.5s-28 -0.5 -50 -1.5s-38.667 -1.5 -50 -1.5c-22.667 0 -34 13.333 -34 40c0 18.667 3 31.667 9 39
s15.667 13.666 29 18.999c5.33301 2.66699 10.166 6.66699 14.499 12s7.83301 13 10.5 23s5 20 7 30s3.83301 23.167 5.5 39.5s3 31 4 44s2.16699 30.167 3.5 51.5s2.66602 39.333 3.99902 54c4.66699 56 7 109.333 7 160c0 43.333 -7 68.666 -21 75.999
c-2.66699 1.33301 -8.16699 3.66602 -16.5 6.99902s-14.333 6.16602 -18 8.49902s-7.5 6.33301 -11.5 12s-6 12.5 -6 20.5c0 16.667 1.83301 29.167 5.5 37.5s12.167 12.5 25.5 12.5c12 0 30.167 -0.5 54.5 -1.5s42.5 -1.5 54.5 -1.5c12.667 0 31.5 0.5 56.5 1.5
s43.5 1.5 55.5 1.5c8 0 15 -3.66699 21 -11s14 -20 24 -38c106 -204.667 164 -307 174 -307c4 0 11.833 9.16699 23.5 27.5s24.834 42.166 39.501 71.499l41 82.5l37.5 79c12.333 27 18.833 41.167 19.5 42.5c2 3.33301 4.5 8.66602 7.5 15.999s5.33301 12.5 7 15.5
s4 6.5 7 10.5s6.16699 6.83301 9.5 8.5s7.33301 2.5 12 2.5c12 0 30 -0.5 54 -1.5s42.333 -1.5 55 -1.5c12 0 30 0.5 54 1.5s42.333 1.5 55 1.5c7.33301 0 13 -0.666992 17 -2s7.66699 -5.16602 11 -11.499s5 -15.166 5 -26.499c0 -17.333 -1.83301 -29.166 -5.5 -35.499
s-11 -10.833 -22 -13.5s-18.833 -5.66699 -23.5 -9c-10 -6.66699 -15 -23 -15 -49c0 -84 6 -194.667 18 -332c0.666992 -4.66699 1.16699 -10.834 1.5 -18.501s0.833008 -13.667 1.5 -18s1.16699 -9.66602 1.5 -15.999s0.833008 -11.333 1.5 -15s1.5 -8 2.5 -13
s2 -8.83301 3 -11.5s2.16699 -5.33398 3.5 -8.00098s3 -4.66699 5 -6s4 -2.33301 6 -3c12 -3.33301 20.167 -6 24.5 -8s8 -6.33301 11 -13s4.5 -17 4.5 -31c0 -19.333 -2.66699 -31.833 -8 -37.5s-17.666 -8.5 -36.999 -8.5c-16 0 -40.167 0.5 -72.5 1.5
s-56.5 1.5 -72.5 1.5s-40.167 -0.5 -72.5 -1.5s-56.5 -1.5 -72.5 -1.5c-11.333 0 -19.833 3 -25.5 9s-8.83398 11.833 -9.50098 17.5s-1 13.167 -1 22.5c0 19.333 7.66699 31.666 23 36.999c19.333 6.66699 31.666 13 36.999 19s8.33301 17.667 9 35
c0 10.667 0.333008 25.5 1 44.5s1.16699 36.167 1.5 51.5s0.5 30 0.5 44c0 41.333 -5.66699 62 -17 62c-10.667 0 -26.667 -20 -48 -60l-114 -220c-14.667 -27.333 -26.5 -45.333 -35.5 -54s-20.5 -13 -34.5 -13c-10 0 -18.667 4.33301 -26 13s-16 22.334 -26 41.001z" />
    <glyph glyph-name="N" unicode="N" horiz-adv-x="778" 
d="M587 16l-294.003 250.999c-32.667 27.333 -49.667 41 -51 41c-9.33301 0 -14 -14.333 -14 -43c0 -43.333 2.33301 -81.666 7 -114.999c2.66699 -16.667 8.16699 -28.834 16.5 -36.501s17.5 -12.167 27.5 -13.5s19.833 -2.5 29.5 -3.5s17.834 -5.16699 24.501 -12.5
s10 -19 10 -35c0 -20 -3.5 -33.667 -10.5 -41s-19.833 -11 -38.5 -11c-13.333 0 -33.333 0.5 -60 1.5s-46.667 1.5 -60 1.5s-33.166 -0.5 -59.499 -1.5s-45.5 -1.5 -57.5 -1.5c-23.333 0 -35 16.667 -35 50c0 17.333 3.83301 29 11.5 35s16.5 9.16699 26.5 9.5
s19.833 7.5 29.5 21.5s15.834 36.333 18.501 67c3.33301 38.667 5 94.334 5 167.001c0 44.667 -1.66699 99.334 -5 164.001c-0.666992 18.667 -5.33398 33.167 -14.001 43.5s-17.834 16.833 -27.501 19.5s-18.5 8.66699 -26.5 18s-12 22.666 -12 39.999
c0 34 12.333 51 37 51c6 0 15.167 -0.5 27.5 -1.5s21.5 -1.5 27.5 -1.5s14.833 0.5 26.5 1.5s20.5 1.5 26.5 1.5h16c2.66699 0 6 -1 10 -3s6.66699 -3.66699 8 -5s5.5 -5.16602 12.5 -11.499l20.5 -18.5l272 -240c33.333 -30 51.333 -45 54 -45c4.66699 0 7 16.333 7 49
c0 92 -10.333 145 -31 159c-7.33301 5.33301 -18.166 9.5 -32.499 12.5s-24.666 7.66699 -30.999 14s-9.5 18.5 -9.5 36.5c0 34.667 14 52 42 52c10 0 26.333 -0.5 49 -1.5s40.667 -1.5 54 -1.5c12.667 0 31.667 0.5 57 1.5s44.333 1.5 57 1.5c14.667 0 24.5 -4 29.5 -12
s7.5 -20.333 7.5 -37c0 -16 -4 -27.667 -12 -35s-16.833 -12 -26.5 -14s-18.5 -10.167 -26.5 -24.5s-12 -35.833 -12 -64.5v-416c0 -14 -0.333008 -25 -1 -33s-2 -17.833 -4 -29.5s-6 -20.334 -12 -26.001s-13.667 -8.5 -23 -8.5c-16 0 -36.333 11 -61 33z" />
    <glyph glyph-name="O" unicode="O" horiz-adv-x="741" 
d="M370 -17c-110 0 -195.667 32.667 -257 98s-92 151.666 -92 258.999s30.667 193.666 92 258.999s147 98 257 98s195.667 -32.667 257 -98s92 -151.666 92 -258.999s-30.667 -193.666 -92 -258.999s-147 -98 -257 -98zM281 421c0 -212 33.333 -317.998 100 -317.998
c52 0 78 52 78 156c0 51.333 -2.16699 96.666 -6.5 135.999s-9.66602 70.166 -15.999 92.499s-14 40.5 -23 54.5s-17.333 23.333 -25 28s-15.834 7 -24.501 7c-55.333 0 -83 -52 -83 -156z" />
    <glyph glyph-name="P" unicode="P" horiz-adv-x="704" 
d="M93 168l-0.00390625 359.003c0 14 -1.5 25.167 -4.5 33.5s-5.83301 13.666 -8.5 15.999s-7.33398 5.5 -14.001 9.5c-2 1.33301 -5.16699 2.83301 -9.5 4.5s-7.66602 3.16699 -9.99902 4.5s-4.5 5 -6.5 11s-3 14 -3 24c0 22.667 5.83301 37.167 17.5 43.5
s30.167 9.5 55.5 9.5c17.333 0 43.833 -0.5 79.5 -1.5s62.5 -1.5 80.5 -1.5c14 0 41.833 0.5 83.5 1.5s81.834 1.5 120.501 1.5c64 0 116 -23.833 156 -71.5s60 -102.5 60 -164.5c0 -33.333 -4.33301 -61.833 -13 -85.5s-19.667 -42 -33 -55s-31.166 -23.333 -53.499 -31
s-44 -12.5 -65 -14.5s-46.5 -3 -76.5 -3c-18 0 -38.333 1.5 -61 4.5s-35.334 4.5 -38.001 4.5c-5.33301 0 -8.66602 -4.83301 -9.99902 -14.5s-2 -29.834 -2 -60.501c0 -34 6.66699 -58.333 20 -73s34 -22.667 62 -24c10.667 -0.666992 18.5 -3.66699 23.5 -9
s7.5 -17.333 7.5 -36c0 -23.333 -4 -38 -12 -44s-23.667 -9 -47 -9c-17.333 0 -43.666 0.5 -78.999 1.5s-62 1.5 -80 1.5s-44.667 -0.5 -80 -1.5s-61.666 -1.5 -78.999 -1.5s-29 5.16699 -35 15.5s-9 24.833 -9 43.5c0 7.33301 1 13.333 3 18s3.83301 8 5.5 10
s4.5 4.16699 8.5 6.5s6.33301 3.83301 7 4.5c26 19.333 39 43.666 39 72.999zM447.996 463.003c0 27.333 -8.49902 51.668 -25.499 73.001s-38.833 32 -65.5 32c-10.667 0 -17 -4.33301 -19 -13s-3 -32.334 -3 -71.001c0 -50.667 1.66699 -81 5 -91s12.666 -15 27.999 -15
c53.333 0 80 28.333 80 85z" />
    <glyph glyph-name="Q" unicode="Q" horiz-adv-x="741" 
d="M370 697c110 0 195.67 -32.6699 257.003 -98.0029s92 -151.666 92 -258.999c0 -80.667 -17.667 -150 -53 -208s-86 -99.333 -152 -124c17.333 -14 35.166 -25.167 53.499 -33.5s31.833 -12.5 40.5 -12.5c12.667 0 26 2.16699 40 6.5s27.667 6.5 41 6.5s20 -14.333 20 -43
c0 -11.333 -2.66699 -24.833 -8 -40.5s-13.5 -32.5 -24.5 -50.5s-27.5 -33 -49.5 -45s-47.667 -18 -77 -18c-40.667 0 -76.334 7.33301 -107.001 22s-54.834 32.334 -72.501 53.001s-33.834 41.334 -48.501 62.001s-31.167 38.334 -49.5 53.001s-39.166 22 -62.499 22
c-19.333 0 -40 -9.83301 -62 -29.5s-38 -29.5 -48 -29.5c-12.667 0 -24.667 4.83301 -36 14.5s-17 21.834 -17 36.501c0 15.333 3.33301 28.666 10 39.999s16 22.833 28 34.5s20.333 20.834 25 27.501c-59.333 63.333 -89 148.666 -89 255.999s30.667 193.666 92 258.999
s147 98 257 98zM281.003 420.997c0 -212 33.333 -317.998 100 -317.998c52 0 78 52 78 156c0 51.333 -2.16699 96.666 -6.5 135.999s-9.66602 70.166 -15.999 92.499s-14 40.5 -23 54.5s-17.333 23.333 -25 28s-15.834 7 -24.501 7c-55.333 0 -83 -52 -83 -156z" />
    <glyph glyph-name="R" unicode="R" horiz-adv-x="778" 
d="M95 308v212.995c0 40.667 -10.333 63.667 -31 69c-6 1.33301 -10.333 2.66602 -13 3.99902s-5.66699 4.83301 -9 10.5s-5 13.834 -5 24.501c0 24.667 3.83301 39.834 11.5 45.501s21.5 8.5 41.5 8.5c19.333 0 48.333 -0.5 87 -1.5s67.667 -1.5 87 -1.5s48.333 0.5 87 1.5
s67.667 1.5 87 1.5c75.333 0 133.833 -18.5 175.5 -55.5s62.5 -84.167 62.5 -141.5c0 -34.667 -9.66699 -66.5 -29 -95.5s-45.333 -49.5 -78 -61.5l157 -187c3.33301 -4 6.83301 -7.5 10.5 -10.5s7.5 -5.5 11.5 -7.5l9 -4.5c2 -1 5.33301 -2.16699 10 -3.5
s7.33398 -2 8.00098 -2c8 -2 13.667 -4.83301 17 -8.5s5 -11.167 5 -22.5c0 -27.333 -8.16699 -48.5 -24.5 -63.5s-38.5 -22.5 -66.5 -22.5c-9.33301 0 -23.5 0.5 -42.5 1.5s-33.167 1.5 -42.5 1.5c-10 0 -24.333 -0.5 -43 -1.5s-33 -1.5 -43 -1.5
c-2.66699 0 -5.33398 0.333008 -8.00098 1s-5.16699 1.83398 -7.5 3.50098s-4.33301 3.16699 -6 4.5s-3.5 3.33301 -5.5 6l-5 6.5c-1.33301 1.66699 -2.83301 4.16699 -4.5 7.5l-3.5 7c-0.666992 1.33301 -2 3.83301 -4 7.5s-3 5.83398 -3 6.50098l-81 173
c-18 38.667 -30.333 60.334 -37 65.001c-3.33301 2 -7 3 -11 3c-10 0 -16.167 -6.66699 -18.5 -20s-3.5 -34.333 -3.5 -63c0 -69.333 16 -106 48 -110c26 -3.33301 39 -21.666 39 -54.999c0 -19.333 -2.5 -31.333 -7.5 -36s-17.833 -7 -38.5 -7c-16 0 -40 0.5 -72 1.5
s-56 1.5 -72 1.5s-40 -0.5 -72 -1.5s-56 -1.5 -72 -1.5c-21.333 0 -35.5 3.66699 -42.5 11s-10.5 21.666 -10.5 42.999c0 11.333 2 19.833 6 25.5s11.333 11.834 22 18.501c20 12.667 30 83.667 30 213zM336 502.995l-0.000976562 -44.999c0 -40 8.33301 -60 25 -60
c24 0 42.167 7.66699 54.5 23s18.5 36.666 18.5 63.999c0 22 -6.66699 41.667 -20 59s-29.666 26 -48.999 26s-29 -22.333 -29 -67z" />
    <glyph glyph-name="S" unicode="S" horiz-adv-x="611" 
d="M522 642l19.998 -130.999c2 -14 -1.66699 -25.5 -11 -34.5s-21.333 -13.5 -36 -13.5c-6.66699 0 -15.5 6 -26.5 18s-22.5 25.333 -34.5 40s-29.167 28 -51.5 40s-46.833 18 -73.5 18c-38.667 0 -58 -13.667 -58 -41c0 -12.667 7.83301 -24.5 23.5 -35.5
s35 -20.5 58 -28.5s48.167 -18.833 75.5 -32.5s52.5 -28.667 75.5 -45s42.333 -39.666 58 -69.999s23.5 -64.833 23.5 -103.5c0 -79.333 -25.667 -139.166 -77 -179.499s-119.333 -60.5 -204 -60.5c-17.333 0 -42.333 5 -75 15c-30 10 -52.333 15 -67 15
c-6 0 -15 -1.16699 -27 -3.5s-21 -3.5 -27 -3.5c-28 0 -42 46.333 -42 139c0 33.333 3.5 55.833 10.5 67.5s16.833 17.5 29.5 17.5c14 0 27.833 -6.5 41.5 -19.5s26 -27.333 37 -43s27.667 -30 50 -43s48.5 -19.5 78.5 -19.5c46.667 0 70 13.333 70 40
c0 17.333 -10.5 32.166 -31.5 44.499s-46.333 23.666 -76 33.999s-59.5 23.166 -89.5 38.499s-55.5 39.333 -76.5 72s-31.5 73 -31.5 121c0 68 23.833 125.333 71.5 172s105.834 70 174.501 70c14.667 0 34.667 -2.66699 60 -8c26.667 -5.33301 44.667 -8 54 -8
s20.666 2 33.999 6c16.667 3.33301 26.334 5 29.001 5c22.667 0 36.334 -16.667 41.001 -50z" />
    <glyph glyph-name="T" unicode="T" horiz-adv-x="685" 
d="M464 478l0.00585938 -176.999c0 -80.667 2.66699 -132.334 8 -155.001c4 -17.333 10.667 -30 20 -38s18.166 -12.167 26.499 -12.5s15.833 -4.5 22.5 -12.5s10 -21.333 10 -40c0 -21.333 -4.83301 -34.333 -14.5 -39s-27.5 -7 -53.5 -7
c-18.667 0 -44.334 0.5 -77.001 1.5s-54 1.5 -64 1.5s-31.333 -0.5 -64 -1.5s-58.334 -1.5 -77.001 -1.5c-14 0 -24.167 0.333008 -30.5 1s-13 2.33398 -20 5.00098s-11.667 7.16699 -14 13.5s-3.5 15.166 -3.5 26.499c0 18.667 3.33301 32 10 40s14.167 12.167 22.5 12.5
s17.166 4.5 26.499 12.5s16 20.667 20 38c6.66699 22.667 10 74.334 10 155.001v177c0 18.667 -0.666992 33.667 -2 45s-5.5 21.666 -12.5 30.999s-17.167 14 -30.5 14c-18 0 -33 -6.66699 -45 -20s-20.5 -28.166 -25.5 -44.499s-11.833 -31.166 -20.5 -44.499
s-18.667 -20 -30 -20c-18 0 -29.5 3.66699 -34.5 11s-7.5 24.666 -7.5 51.999c0 11.333 0.333008 37.833 1 79.5s1 66.834 1 75.501c0 17.333 16.667 26 50 26c31.333 0 77.666 -0.5 138.999 -1.5s107 -1.5 137 -1.5s75.667 0.5 137 1.5s107.666 1.5 138.999 1.5
c33.333 0 50 -8.66699 50 -26c0 -8.66699 0.333008 -33.834 1 -75.501s1 -68.167 1 -79.5c0 -27.333 -2.5 -44.666 -7.5 -51.999s-16.5 -11 -34.5 -11c-11.333 0 -21.333 6.66699 -30 20s-15.5 28.166 -20.5 44.499s-13.5 31.166 -25.5 44.499s-27 20 -45 20
c-13.333 0 -23.333 -4.83301 -30 -14.5s-10.5 -19.667 -11.5 -30s-1.5 -25.5 -1.5 -45.5z" />
    <glyph glyph-name="U" unicode="U" horiz-adv-x="796" 
d="M75 261l0.00195312 257.005c0 24 -1.5 39.667 -4.5 47s-9.16699 14 -18.5 20c-2.66699 1.33301 -6.16699 3.33301 -10.5 6l-9 5.5c-1.66699 1 -3.83398 2.66699 -6.50098 5s-4.5 4.66602 -5.5 6.99902s-2 5.33301 -3 9s-1.5 7.83398 -1.5 12.501
c0 18 2.66699 31.333 8 40s15.333 13 30 13c10 0 30.5 -0.5 61.5 -1.5s55.833 -1.5 74.5 -1.5c17.333 0 43 0.5 77 1.5s59.333 1.5 76 1.5c24.667 0 40.5 -2.33301 47.5 -7s10.5 -17.667 10.5 -39c0 -4.66699 -0.166992 -8.83398 -0.5 -12.501s-0.833008 -7 -1.5 -10
s-1.66699 -5.66699 -3 -8s-2.33301 -4.33301 -3 -6s-2.33398 -3.33398 -5.00098 -5.00098l-5.5 -3.5c-1 -0.666992 -3.33301 -1.33398 -7 -2.00098s-6.16699 -1.16699 -7.5 -1.5s-4.33301 -1 -9 -2s-7.66699 -1.5 -9 -1.5c-6.66699 -1.33301 -12.167 -3.83301 -16.5 -7.5
s-8.16602 -12 -11.499 -25s-5 -31.167 -5 -54.5v-226c0 -98.667 46 -148 138 -148c24.667 0 44.667 2.66699 60 8s28 12.666 38 21.999s17.333 25 22 47s7.66699 45.333 9 70s2 59 2 103c0 80 -2.83301 134.5 -8.5 163.5s-17.834 44.833 -36.501 47.5
c-33.333 4.66699 -50 21 -50 49c0 20.667 3.16699 34 9.5 40s16.833 9 31.5 9c10.667 0 26.667 -0.5 48 -1.5s37.333 -1.5 48 -1.5s26.667 0.5 48 1.5s37.333 1.5 48 1.5c20 0 34.333 -2.66699 43 -8s13 -17.333 13 -36c0 -15.333 -1.83301 -26.833 -5.5 -34.5
s-7.5 -12.334 -11.5 -14.001s-10.667 -3.5 -20 -5.5c-18 -3.33301 -27 -25 -27 -65c0 -151.333 -3.33301 -264 -10 -338c-2.66699 -32.667 -10.5 -61 -23.5 -85s-28.833 -43.167 -47.5 -57.5s-41.5 -25.833 -68.5 -34.5s-54 -14.5 -81 -17.5s-57.167 -4.5 -90.5 -4.5
c-108.667 0 -189.167 20.167 -241.5 60.5s-78.5 112.833 -78.5 217.5z" />
    <glyph glyph-name="V" unicode="V" horiz-adv-x="741" 
d="M682 542l-207.999 -403.995c-29.333 -56.667 -52.833 -96.667 -70.5 -120s-36.834 -35 -57.501 -35c-19.333 0 -35 8.5 -47 25.5s-29.667 51.5 -53 103.5l-12 26l-176 386c-10 22.667 -17.5 37.5 -22.5 44.5s-12.833 12.5 -23.5 16.5c-14 6 -23.667 12.167 -29 18.5
s-8 16.166 -8 29.499c0 20.667 3 34.167 9 40.5s17.667 9.5 35 9.5c16 0 42.5 -0.5 79.5 -1.5s65.833 -1.5 86.5 -1.5c20 0 48.5 0.5 85.5 1.5s63.833 1.5 80.5 1.5c15.333 0 25.833 -3 31.5 -9s8.5 -19.333 8.5 -40c0 -25.333 -10.333 -41.666 -31 -48.999
c-16.667 -5.33301 -25 -21 -25 -47c0 -18 13.167 -58.167 39.5 -120.5s44.5 -93.5 54.5 -93.5c13.333 0 31.5 29.167 54.5 87.5s34.5 99.166 34.5 122.499c0 13.333 -1.33301 23.166 -4 29.499s-5.66699 10.5 -9 12.5s-10.333 5 -21 9
c-14 5.33301 -22.833 11.166 -26.5 17.499s-5.5 18.833 -5.5 37.5c0 28.667 11.333 43 34 43c13.333 0 33.5 -0.333008 60.5 -1s47.167 -1 60.5 -1s33.5 0.333008 60.5 1s47.167 1 60.5 1c14.667 0 24.667 -3 30 -9s8 -19.333 8 -40c0 -14.667 -2 -24.334 -6 -29.001
s-15.333 -11.334 -34 -20.001c-19.333 -10 -34 -24.333 -44 -43z" />
    <glyph glyph-name="W" unicode="W" horiz-adv-x="1000" 
d="M957 549l-187.997 -448.998c-11.333 -27.333 -20 -47.333 -26 -60s-15.333 -25.334 -28 -38.001s-26.667 -19 -42 -19c-10 0 -18.333 1.16699 -25 3.5s-12.334 6.83301 -17.001 13.5s-8.16699 12.334 -10.5 17.001s-5.83301 13 -10.5 25l-84 218
c-14.667 39.333 -25.667 59 -33 59c-2 0 -4 -1 -6 -3s-4 -5.16699 -6 -9.5l-6 -12.5c-2 -4 -4.5 -9.5 -7.5 -16.5l-7.5 -17.5l-96 -210c-21.333 -44.667 -45.666 -67 -72.999 -67c-32 0 -56.333 23.667 -73 71l-160 437c-20 56 -39.667 87.333 -59 94
c-12.667 4 -19 18 -19 42c0 20.667 3 35.167 9 43.5s18.667 12.5 38 12.5c13.333 0 33.5 -0.5 60.5 -1.5s47.5 -1.5 61.5 -1.5c13.333 0 33.5 0.5 60.5 1.5s47.5 1.5 61.5 1.5c20 0 32.667 -2.66699 38 -8s8 -18.666 8 -39.999c0 -13.333 -5.33301 -27.333 -16 -42
s-16 -27 -16 -37c0 -19.333 10.667 -60.333 32 -123l9 -27l9 -27c2 -6 4.5 -12.5 7.5 -19.5s6 -12.167 9 -15.5s5.83301 -5 8.5 -5c8 0 20.667 22.667 38 68s26 77 26 95c0 22 -12.5 43.833 -37.5 65.5s-37.5 42.834 -37.5 63.501s3 34.5 9 41.5s17.333 10.5 34 10.5
c14.667 0 36.667 -0.5 66 -1.5s51.333 -1.5 66 -1.5s36.667 0.5 66 1.5s51.333 1.5 66 1.5c21.333 0 35 -2.5 41 -7.5s9 -17.5 9 -37.5c0 -14.667 -2.16699 -26.167 -6.5 -34.5s-9.33301 -13.666 -15 -15.999s-10.667 -6.33301 -15 -12s-6.5 -13.167 -6.5 -22.5
c0 -20.667 10.333 -60.334 31 -119.001c2.66699 -6.66699 5.83398 -15.667 9.50098 -27l8.5 -26c2 -6 4.5 -12.333 7.5 -19s5.83301 -11.334 8.5 -14.001s5.33398 -4 8.00098 -4c9.33301 0 23.166 28.333 41.499 85s27.5 92 27.5 106c0.666992 18.667 -8 34.167 -26 46.5
s-27 27.166 -27 44.499c0 23.333 2.83301 38.666 8.5 45.999s14.5 11 26.5 11c11.333 0 28.166 -0.5 50.499 -1.5s38.833 -1.5 49.5 -1.5c11.333 0 28.166 0.5 50.499 1.5s38.833 1.5 49.5 1.5c15.333 0 24.666 -2.5 27.999 -7.5s5 -17.167 5 -36.5
c0 -16.667 -1.83301 -27.834 -5.5 -33.501s-11.834 -12.5 -24.501 -20.5c-17.333 -10.667 -28.333 -22.667 -33 -36z" />
    <glyph glyph-name="X" unicode="X" horiz-adv-x="870" 
d="M217 221l84.0029 94.9961l-111 135l-44.5 49c-9 10 -21.5 22.833 -37.5 38.5s-29.333 27 -40 34s-20 11.167 -28 12.5c-14 2 -23.5 5.66699 -28.5 11s-7.5 15.333 -7.5 30c0 21.333 3.5 36.166 10.5 44.499s18.167 12.5 33.5 12.5c20 0 50 -0.5 90 -1.5s70 -1.5 90 -1.5
s50 0.5 90 1.5s70 1.5 90 1.5s34.333 -3.16699 43 -9.5s13 -18.166 13 -35.499c0 -15.333 -3.5 -26.333 -10.5 -33s-14 -12.167 -21 -16.5s-10.5 -11.166 -10.5 -20.499c0 -8 9 -25.667 27 -53s30.667 -41 38 -41c10 0 24.5 12.333 43.5 37s28.5 42.334 28.5 53.001
c0 8.66699 -2.5 15 -7.5 19s-10.333 6.66699 -16 8s-11 5.83301 -16 13.5s-7.5 18.834 -7.5 33.501c0 17.333 2.5 29.166 7.5 35.499s15.5 9.5 31.5 9.5c13.333 0 33.166 -0.5 59.499 -1.5s46.166 -1.5 59.499 -1.5s33.166 0.5 59.499 1.5s46.166 1.5 59.499 1.5
c21.333 0 34.833 -2 40.5 -6s8.5 -15 8.5 -33c0 -30.667 -11 -50.334 -33 -59.001c-28 -11.333 -55.5 -28.333 -82.5 -51s-56.667 -51.334 -89 -86.001s-54.5 -57.667 -66.5 -69c9.33301 -10 34.333 -40.167 75 -90.5s78 -93.166 112 -128.499s62 -57 84 -65
c17.333 -6 28.333 -11.667 33 -17s7 -14.666 7 -27.999c0 -20.667 -4.16699 -34.667 -12.5 -42s-23.166 -11 -44.499 -11c-20.667 0 -51.334 0.5 -92.001 1.5s-71 1.5 -91 1.5s-50.333 -0.5 -91 -1.5s-71.334 -1.5 -92.001 -1.5c-22 0 -35.833 2.66699 -41.5 8
s-8.5 16.666 -8.5 33.999c0 14.667 2.5 26.334 7.5 35.001s10.333 14.5 16 17.5s11 6.66699 16 11s7.5 9.83301 7.5 16.5c0 8.66699 -8.83301 26.5 -26.5 53.5s-32.167 40.5 -43.5 40.5c-8 0 -23.167 -14 -45.5 -42s-33.5 -46.333 -33.5 -55c0 -7.33301 2.5 -13 7.5 -17
s10.667 -6.83301 17 -8.5s12 -6.16699 17 -13.5s7.5 -17.666 7.5 -30.999c0 -20 -1.83301 -33.167 -5.5 -39.5s-11.5 -9.5 -23.5 -9.5c-16.667 0 -41.667 0.5 -75 1.5s-58.666 1.5 -75.999 1.5c-16.667 0 -41.667 -0.5 -75 -1.5s-58.666 -1.5 -75.999 -1.5
c-12 0 -19.833 3.83301 -23.5 11.5s-5.5 19.834 -5.5 36.501c0 14 3.5 24.333 10.5 31s19.5 13 37.5 19c52.667 16 111.667 58 177 126z" />
    <glyph glyph-name="Y" unicode="Y" horiz-adv-x="704" 
d="M635 549l-145 -182.997c-2 -2 -5 -5.5 -9 -10.5s-7 -9 -9 -12l-7.5 -11c-3 -4.33301 -5 -9 -6 -14s-1.5 -10.167 -1.5 -15.5v-154c0 -14 7.83301 -25.833 23.5 -35.5s31.167 -15.834 46.5 -18.501c10 -2 17 -3.66699 21 -5s7.66699 -5.5 11 -12.5s5 -17.167 5 -30.5
c0 -33.333 -19.667 -50 -59 -50c-18 0 -45.167 0.5 -81.5 1.5s-63.5 1.5 -81.5 1.5s-45.167 -0.5 -81.5 -1.5s-63.5 -1.5 -81.5 -1.5c-22.667 0 -38.334 4 -47.001 12s-13 20.667 -13 38c0 12.667 3.33301 22.334 10 29.001s18 13 34 19c24.667 8.66699 39.334 16 44.001 22
c5.33301 7.33301 8 18 8 32v121c0 18 -3.33301 33 -10 45l-106 184c-13.333 23.333 -22.833 39.166 -28.5 47.499s-12.5 16.333 -20.5 24s-17 12.5 -27 14.5c-16 3.33301 -26.167 8 -30.5 14s-6.5 16.333 -6.5 31c0 18.667 2 32.167 6 40.5s12 12.5 24 12.5
c18 0 44.333 -0.5 79 -1.5s60.667 -1.5 78 -1.5c18 0 44.333 0.5 79 1.5s60.667 1.5 78 1.5c22.667 0 37.834 -3.33301 45.501 -10s11.5 -17.667 11.5 -33c0 -16.667 -4.16699 -29.167 -12.5 -37.5s-16.5 -14.5 -24.5 -18.5s-12 -9.33301 -12 -16
c0 -7.33301 10 -26.333 30 -57s33 -46 39 -46c8 0 19.667 10.333 35 31c28.667 38.667 43 62 43 70s-3.5 14.5 -10.5 19.5s-14 10.833 -21 17.5s-10.5 16 -10.5 28c0 11.333 0.666992 20.166 2 26.499s4.66602 12.166 9.99902 17.499s13.333 8 24 8
c11.333 0 28.5 -0.5 51.5 -1.5s40.167 -1.5 51.5 -1.5s28.5 0.5 51.5 1.5s40.167 1.5 51.5 1.5c21.333 0 32 -14 32 -42c0 -16 -2.33301 -28.167 -7 -36.5s-14 -14.833 -28 -19.5c-16 -5.33301 -31.667 -17.333 -47 -36z" />
    <glyph glyph-name="Z" unicode="Z" horiz-adv-x="722" 
d="M626 527l-211.997 -318.001c-31.333 -48 -47 -74 -47 -78c0 -4.66699 3.5 -7.5 10.5 -8.5s21.167 -1.5 42.5 -1.5c38 0 70.333 4 97 12s46.5 17.833 59.5 29.5s24.167 23.334 33.5 35.001s18.833 21.5 28.5 29.5s20.834 12 33.501 12s21.5 -2.66699 26.5 -8
s7.5 -14.666 7.5 -27.999c0 -20 -5.83301 -52.167 -17.5 -96.5s-22.167 -74.833 -31.5 -91.5c-6.66699 -12 -21.334 -18 -44.001 -18c-31.333 0 -78.333 0.5 -141 1.5s-109.667 1.5 -141 1.5s-78.333 -0.5 -141 -1.5s-109.667 -1.5 -141 -1.5c-22 0 -33 14.667 -33 44
c0 12.667 5.16699 27.667 15.5 45s27.833 43.666 52.5 78.999c5.33301 7.33301 9.33301 13 12 17l216 302c25.333 36.667 38 59 38 67s-15.667 12 -47 12c-33.333 0 -61.833 -3.83301 -85.5 -11.5s-41.334 -17.167 -53.001 -28.5s-21.834 -22.5 -30.501 -33.5
s-17.334 -20.333 -26.001 -28s-18.667 -11.5 -30 -11.5c-12.667 0 -22.167 4.16699 -28.5 12.5s-9.5 18.833 -9.5 31.5c0 26.667 10.667 77.667 32 153c6 19.333 12.667 30.666 20 33.999c2.66699 1.33301 6 2 10 2c24.667 0 63.667 -0.5 117 -1.5s94 -1.5 122 -1.5
c27.333 0 68.333 0.5 123 1.5s95.667 1.5 123 1.5c39.333 0 65.5 -2.16699 78.5 -6.5s19.5 -16.166 19.5 -35.499c0 -16 -19.667 -54 -59 -114z" />
    <glyph glyph-name="bracketleft" unicode="[" horiz-adv-x="500" 
d="M118 -177v827c0 22 11 33 33 33c13.333 0 33.333 -0.5 60 -1.5s46.667 -1.5 60 -1.5s33.333 0.5 60 1.5s46.667 1.5 60 1.5c22 0 36.5 -3.66699 43.5 -11s10.5 -19.666 10.5 -36.999c0 -14 -3.16699 -25.167 -9.5 -33.5s-12.5 -13.5 -18.5 -15.5s-15.333 -4.33301 -28 -7
c-12 -2.66699 -21.333 -5.33398 -28 -8.00098s-13 -8.33398 -19 -17.001s-9 -20.334 -9 -35.001v-565c0 -21.333 4.83301 -35.833 14.5 -43.5s23.5 -13.167 41.5 -16.5c12 -2 21.333 -4.16699 28 -6.5s13 -7.66602 19 -15.999s9 -19.5 9 -33.5
c0 -17.333 -3.5 -29.666 -10.5 -36.999s-21.5 -11 -43.5 -11c-13.333 0 -33.333 0.5 -60 1.5s-46.667 1.5 -60 1.5s-33.333 -0.5 -60 -1.5s-46.667 -1.5 -60 -1.5c-22 0 -33 11 -33 33z" />
    <glyph glyph-name="backslash" unicode="\" horiz-adv-x="278" 
d="M80 697l208 -714h-90l-208 714h90z" />
    <glyph glyph-name="bracketright" unicode="]" horiz-adv-x="500" 
d="M382 650l0.000976562 -826.997c0 -22 -11 -33 -33 -33c-13.333 0 -33.333 0.5 -60 1.5s-46.667 1.5 -60 1.5s-33.333 -0.5 -60 -1.5s-46.667 -1.5 -60 -1.5c-22 0 -36.5 3.66699 -43.5 11s-10.5 19.666 -10.5 36.999c0 14 3.16699 25.167 9.5 33.5s12.5 13.5 18.5 15.5
s15.333 4.33301 28 7c12 2.66699 21.333 5.33398 28 8.00098s13 8.33398 19 17.001s9 20.334 9 35.001v565c0 11.333 -1.33301 20.666 -4 27.999s-7.33398 13.166 -14.001 17.499s-12.167 7.16602 -16.5 8.49902s-11.5 3.33301 -21.5 6c-12 2 -21.333 4.16699 -28 6.5
s-13 7.66602 -19 15.999s-9 19.5 -9 33.5c0 17.333 3.5 29.666 10.5 36.999s21.5 11 43.5 11c13.333 0 33.333 -0.5 60 -1.5s46.667 -1.5 60 -1.5s33.333 0.5 60 1.5s46.667 1.5 60 1.5c22 0 33 -11 33 -33z" />
    <glyph glyph-name="asciicircum" unicode="^" horiz-adv-x="600" 
d="M189 303h-116l174 365h106l174 -365h-117l-110 248z" />
    <glyph glyph-name="underscore" unicode="_" horiz-adv-x="500" 
d="M0 -75h500v-50h-500v50z" />
    <glyph glyph-name="grave" unicode="`" horiz-adv-x="333" 
d="M251 586h-66l-129 72c-2 1.33301 -5.16699 3.33301 -9.5 6l-9 5.5c-1.66699 1 -4.33398 2.83301 -8.00098 5.5s-6.16699 4.66699 -7.5 6s-3.33301 3.16602 -6 5.49902s-4.5 4.33301 -5.5 6s-2.5 3.83398 -4.5 6.50098s-3.16699 5.33398 -3.5 8.00098
s-0.833008 5.66699 -1.5 9s-1 6.66602 -1 9.99902c0 18 5.66699 31.833 17 41.5s25 14.5 41 14.5c16.667 0 32.334 -5 47.001 -15s35 -32.333 61 -67z" />
    <glyph glyph-name="a" unicode="a" horiz-adv-x="630" 
d="M331 174l0.000976562 47.001c-21.333 0 -40 -5.83301 -56 -17.5s-24 -29.834 -24 -54.501c0 -9.33301 2.66699 -17 8 -23s12.666 -9 21.999 -9c18 0 30.833 6 38.5 18s11.5 25 11.5 39zM172.001 273.001l140.002 41.9951c11.333 4 17 7.33301 17 10
c0 0.666992 0.333008 7.33398 1 20.001s1 23.667 1 33c0 18.667 -4.33301 31.167 -13 37.5s-26.334 9.5 -53.001 9.5c-36.667 0 -71 -18 -103 -54c-3.33301 -3.33301 -8 -8.66602 -14 -15.999s-10.5 -12.666 -13.5 -15.999s-7 -7.16602 -12 -11.499s-9.5 -7.33301 -13.5 -9
s-8 -2.5 -12 -2.5c-16.667 0 -28.5 8.5 -35.5 25.5s-10.5 34.833 -10.5 53.5c0 25.333 10.5 47.166 31.5 65.499s47.667 31.666 80 39.999s62.166 14.166 89.499 17.499s53 5 77 5c36 0 66.333 -2 91 -6s47.667 -11.833 69 -23.5s37.166 -29 47.499 -52
s15.5 -52.167 15.5 -87.5c0 -20 -1.16699 -50.667 -3.5 -92s-3.5 -72 -3.5 -92c0 -14 1.83301 -23.833 5.5 -29.5s11.167 -8.5 22.5 -8.5c4 0 9.33301 1.16699 16 3.5s11.667 3.5 15 3.5c9.33301 0 14 -6.33301 14 -19c0 -23.333 -7.33301 -44 -22 -62
s-33.5 -31.667 -56.5 -41s-46 -16.166 -69 -20.499s-45.167 -6.5 -66.5 -6.5c-20 0 -35.667 3.66699 -47 11s-20.666 20 -27.999 38c-62 -32.667 -119.333 -49 -172 -49c-40.667 0 -72 10.333 -94 31s-33 51.334 -33 92.001c0 42.667 11.5 76.334 34.5 101.001
s58.833 44.334 107.5 59.001z" />
    <glyph glyph-name="b" unicode="b" 
d="M45 258l0.00195312 261.999c0 16.667 -1.5 29.667 -4.5 39s-5.83301 15.166 -8.5 17.499s-8.33398 5.83301 -17.001 10.5c-2 1.33301 -5 3 -9 5s-6.83301 3.5 -8.5 4.5s-3.66699 2.83301 -6 5.5s-4 6 -5 10s-1.5 8.66699 -1.5 14c0 22.667 32.833 44 98.5 64
s113.5 30 143.5 30c8 0 13.667 -0.166992 17 -0.5s7.16602 -1.66602 11.499 -3.99902s7.16602 -6.33301 8.49902 -12s2 -13.5 2 -23.5c0 -23.333 -0.666992 -58.5 -2 -105.5s-2 -82.833 -2 -107.5c31.333 20 57.333 34.333 78 43s44 13 70 13
c46.667 0 86.167 -14.5 118.5 -43.5s55 -63.5 68 -103.5s19.5 -83 19.5 -129c0 -36.667 -4.16699 -69.834 -12.5 -99.501s-21.5 -56.667 -39.5 -81s-43.5 -43.166 -76.5 -56.499s-72.167 -20 -117.5 -20c-43.333 0 -83 1.66699 -119 5s-56 5 -60 5
c-10.667 0 -22.5 -5.66699 -35.5 -17s-27.167 -22.666 -42.5 -33.999s-30.666 -17 -45.999 -17c-11.333 0 -19 5 -23 15s-6 26.667 -6 50c0 25.333 1.16699 67 3.5 125s3.5 103.333 3.5 136zM299.002 383.999c-15.333 0 -24.499 -7 -27.499 -21s-4.5 -47.667 -4.5 -101
c0 -47.333 1.66699 -84 5 -110s8 -43.167 14 -51.5s14.333 -12.5 25 -12.5c50 0 75 46.667 75 140c0 46 -9.33301 83.5 -28 112.5s-38.334 43.5 -59.001 43.5z" />
    <glyph glyph-name="c" unicode="c" horiz-adv-x="537" 
d="M28 241c0 81.333 23.498 148.666 70.498 201.999s115.167 80 204.5 80c50.667 0 93.834 -7 129.501 -21s53.5 -38 53.5 -72c0 -25.333 -4.66699 -47 -14 -65s-23.666 -27 -42.999 -27c-18.667 0 -36.167 7.33301 -52.5 22l-46.5 43.5c-14.667 14.333 -29 21.5 -43 21.5
s-23.833 -8.5 -29.5 -25.5s-8.5 -34.833 -8.5 -53.5c0 -141.333 42.667 -212 128 -212c15.333 0 32.833 4.83301 52.5 14.5s32.5 14.5 38.5 14.5c18 0 27 -11.667 27 -35c0 -27.333 -14.833 -52.166 -44.5 -74.499s-62.667 -38.5 -99 -48.5s-69.5 -15 -99.5 -15
c-149.333 0 -224 83.667 -224 251z" />
    <glyph glyph-name="d" unicode="d" horiz-adv-x="667" 
d="M594 510l0.00195312 -248.997c0 -44.667 1.83301 -73.667 5.5 -87s12.5 -23.333 26.5 -30c16 -7.33301 24 -22 24 -44c0 -7.33301 -2.5 -14.166 -7.5 -20.499s-10 -10.833 -15 -13.5s-13.667 -6.83398 -26 -12.501s-21.166 -9.83398 -26.499 -12.501
c-14 -7.33301 -45.333 -20.5 -94 -39.5s-77.667 -28.5 -87 -28.5c-12.667 0 -19 30.667 -19 92c-51.333 -50 -103.333 -75 -156 -75c-57.333 0 -103.666 24.667 -138.999 74s-53 110.333 -53 183c0 75.333 19.833 140.166 59.5 194.499s93.5 81.5 161.5 81.5
c17.333 0 36.166 -3.16699 56.499 -9.5s34.166 -9.5 41.499 -9.5c8.66699 0 14.5 3.16699 17.5 9.5s4.5 17.5 4.5 33.5c0 7.33301 -0.5 13.833 -1.5 19.5s-2.33301 10 -4 13s-3.83398 5.83301 -6.50098 8.5s-4.83398 4.33398 -6.50098 5.00098s-4.33398 1.66699 -8.00098 3
s-6.16699 2.33301 -7.5 3c-8 3.33301 -13.167 5.66602 -15.5 6.99902s-5.33301 4.33301 -9 9s-5.5 10.667 -5.5 18c0 18.667 18.333 35.167 55 49.5s72.834 24.166 108.501 29.499s63.5 8 83.5 8c30.667 0 46 -5.66699 46 -17c0 -22 -0.5 -54.333 -1.5 -97
s-1.5 -74.667 -1.5 -96zM257.002 285.003c0 -30.667 6.49902 -60.834 19.499 -90.501s32.5 -44.5 58.5 -44.5c14.667 0 24.667 7.66699 30 23s8 51 8 107c0 43.333 -1.16699 74.333 -3.5 93s-6.16602 30.667 -11.499 36s-14.666 8 -27.999 8c-18 0 -32.833 -8.5 -44.5 -25.5
s-19.334 -34.667 -23.001 -53s-5.5 -36.166 -5.5 -53.499z" />
    <glyph glyph-name="e" unicode="e" horiz-adv-x="556" 
d="M331 372c0 14.667 -4.66699 27.166 -14 37.499s-21.333 15.5 -36 15.5s-26 -6.33301 -34 -19s-12 -26.667 -12 -42c0 -26.667 6.66699 -40 20 -40c10.667 0 26 4.33301 46 13s30 20.334 30 35.001zM473 299.999l-218.001 -60.001c16.667 -78.667 56.667 -118 120 -118
c19.333 0 38.666 4.83301 57.999 14.5s35.666 19.334 48.999 29.001s22.333 14.5 27 14.5c10.667 0 16 -8.33301 16 -25c0 -32 -9 -59.5 -27 -82.5s-41.5 -40.167 -70.5 -51.5s-57.667 -19.333 -86 -24s-57.166 -7 -86.499 -7c-72.667 0 -129.167 22.5 -169.5 67.5
s-60.5 102.833 -60.5 173.5c0 76.667 27.5 144.5 82.5 203.5s120.5 88.5 196.5 88.5c32 0 60.833 -4.5 86.5 -13.5s46.334 -20.5 62.001 -34.5s28.834 -29.667 39.501 -47s18.167 -33.5 22.5 -48.5s6.5 -29.167 6.5 -42.5c0 -7.33301 -4.5 -14.5 -13.5 -21.5
s-20.5 -12.167 -34.5 -15.5z" />
    <glyph glyph-name="f" unicode="f" horiz-adv-x="407" 
d="M304 397l0.000976562 -253.996c0 -31.333 6.33301 -50 19 -56c2 -0.666992 5.66699 -2.16699 11 -4.5s8.66602 -4 9.99902 -5s3.83301 -2.5 7.5 -4.5s6 -3.83301 7 -5.5l4 -6.5c1.66699 -2.66699 2.66699 -5.83398 3 -9.50098s0.5 -7.83398 0.5 -12.501
c0 -28 -10.333 -42 -31 -42c-14 0 -35 0.5 -63 1.5s-49 1.5 -63 1.5s-35 -0.5 -63 -1.5s-49 -1.5 -63 -1.5c-22 0 -37.167 2.5 -45.5 7.5s-12.5 17.167 -12.5 36.5c0 11.333 2 19.333 6 24s10 8.5 18 11.5s14 6.5 18 10.5c4 3.33301 7.16699 9.5 9.5 18.5
s3.83301 22.667 4.5 41s1.16699 34.5 1.5 48.5s0.5 35.667 0.5 65c0 35.333 -0.666992 81.666 -2 138.999c-16 2.66699 -30.333 6 -43 10c-7.33301 2 -12 4.83301 -14 8.5s-3 10.5 -3 20.5c0 18 2.33301 34.667 7 50s12 23 22 23c10.667 0 26 0.666992 46 2
c5.33301 63.333 35.833 113.666 91.5 150.999s117.167 56 184.5 56c74.667 0 112 -19 112 -57c0 -19.333 -7.66699 -43 -23 -71s-33.333 -42 -54 -42c-11.333 0 -22.333 12 -33 36s-21 36 -31 36c-26.667 0 -40 -36.333 -40 -109h53c23.333 0 35 -3.66699 35 -11
c0 -21.333 -4.33301 -50 -13 -86c-3.33301 -12.667 -16.333 -19 -39 -19h-35z" />
    <glyph glyph-name="g" unicode="g" horiz-adv-x="630" 
d="M252 363c0 -59.333 12.333 -89 37 -89c26.667 0 40 25.667 40 77c0 48 -14 72 -42 72c-23.333 0 -35 -20 -35 -60zM47 338c0 59.333 23.668 105.003 71.001 137.003s105.666 48 174.999 48c34 0 65.333 -4 94 -12s51.5 -16 68.5 -24s28.167 -12 33.5 -12
c12 0 27.333 5.33301 46 16s31.667 16 39 16c10 0 17.5 -7.33301 22.5 -22s7.5 -28 7.5 -40c0 -27.333 -5.33301 -46.333 -16 -57s-31 -21 -61 -31c4.66699 -10.667 7 -24 7 -40c0 -14.667 -3.5 -30 -10.5 -46s-18 -32 -33 -48s-36.667 -29.167 -65 -39.5
s-61.5 -15.5 -99.5 -15.5c-9.33301 0 -23 0.333008 -41 1s-31.667 1 -41 1c-18 0 -27 -7 -27 -21c0 -13.333 6.33301 -21.833 19 -25.5s30.667 -5.5 54 -5.5c12 0 34.5 0.833008 67.5 2.5s60.5 2.5 82.5 2.5c45.333 0 82.166 -13 110.499 -39s42.5 -57.667 42.5 -95
c0 -65.333 -29 -116.833 -87 -154.5s-135.333 -56.5 -232 -56.5c-158.667 0 -238 36.333 -238 109c0 21.333 4 38.166 12 50.499s21.667 26.166 41 41.499c-38 26.667 -57 57.667 -57 93c0 30 8.83301 54.167 26.5 72.5s42.834 36.166 75.501 53.499
c-28 14.667 -49.5 34.667 -64.5 60s-22.5 52 -22.5 80zM180.001 -67.9971c0 -18.667 11.3301 -32.333 33.9971 -41s45.334 -13 68.001 -13s41.834 2.66699 57.501 8s23.5 11.666 23.5 18.999c0 6.66699 -1 12.167 -3 16.5s-5.33301 7.5 -10 9.5s-9 3.5 -13 4.5
s-9.83301 1.83301 -17.5 2.5s-13.5 1.33398 -17.5 2.00098c-46 8 -77.667 12 -95 12c-9.33301 0 -16.166 -1.16699 -20.499 -3.5s-6.5 -7.83301 -6.5 -16.5z" />
    <glyph glyph-name="h" unicode="h" horiz-adv-x="704" 
d="M66 330l-0.00292969 203.998c0 21.333 -10.333 37.333 -31 48c-5.33301 2.66699 -9.16602 4.66699 -11.499 6s-5.16602 3.5 -8.49902 6.5s-5.66602 6.66699 -6.99902 11s-2 9.5 -2 15.5c0 22.667 33.167 44.834 99.5 66.501s112.833 32.5 139.5 32.5
c28 0 42 -14.667 42 -44c0 -21.333 -1 -56.166 -3 -104.499s-2.66699 -84.833 -2 -109.5c48 40.667 101.667 61 161 61c20.667 0 40.334 -2 59.001 -6s38.667 -11.167 60 -21.5s38.5 -27.333 51.5 -51s19.5 -52.5 19.5 -86.5c0 -32.667 0.5 -67 1.5 -103
s1.5 -59.333 1.5 -70c0 -57.333 9.66699 -90 29 -98c10 -4 16.667 -8.33301 20 -13s5 -13.667 5 -27c0 -11.333 -2.33301 -22.5 -7 -33.5s-11.334 -16.5 -20.001 -16.5c-14 0 -35.333 0.5 -64 1.5s-50.334 1.5 -65.001 1.5s-36.334 -0.5 -65.001 -1.5s-50 -1.5 -64 -1.5
c-20 0 -30 17.333 -30 52c0 13.333 3.83301 22.166 11.5 26.499s12.167 8.16602 13.5 11.499c5.33301 14 8.66602 28.5 9.99902 43.5s2 46.5 2 94.5c0 15.333 -0.166992 27.333 -0.5 36s-1.16602 20.834 -2.49902 36.501s-4 28 -8 37s-9 18.5 -15 28.5
s-14.167 17.333 -24.5 22s-22.5 7 -36.5 7c-11.333 0 -20.833 -3 -28.5 -9s-11.5 -14.333 -11.5 -25c0 -20.667 0.333008 -51.667 1 -93s1 -69.666 1 -84.999c0 -55.333 8 -86.333 24 -93c10 -4.66699 16.667 -9.66699 20 -15s5 -14.333 5 -27
c0 -17.333 -2.5 -29.666 -7.5 -36.999s-15.5 -11 -31.5 -11c-14 0 -35 0.5 -63 1.5s-49 1.5 -63 1.5s-35 -0.5 -63 -1.5s-49 -1.5 -63 -1.5c-15.333 0 -25.166 3 -29.499 9s-6.5 17 -6.5 33c0 11.333 1.5 20.166 4.5 26.499s6 10.333 9 12s9.5 4.83398 19.5 9.50098
c10.667 5.33301 17.334 25.166 20.001 59.499s4 95.5 4 183.5z" />
    <glyph glyph-name="i" unicode="i" horiz-adv-x="407" 
d="M93 181l0.00585938 166.995c0 2 -0.333008 4 -1 6s-1.16699 3.83301 -1.5 5.5s-1.33301 3.16699 -3 4.5s-2.83398 2.5 -3.50098 3.5s-2.33398 2.16699 -5.00098 3.5s-4.33398 2.33301 -5.00098 3s-2.5 1.83398 -5.5 3.50098s-4.83301 2.5 -5.5 2.5
c-0.666992 0.666992 -1.66699 1.33398 -3 2.00098c-14 6.66699 -22.333 15.334 -25 26.001c-0.666992 3.33301 -1 7.33301 -1 12c0 8 2.33301 15 7 21s13 11.667 25 17s22 9.33301 30 12s22 7 42 13c87.333 26.667 139.666 40 156.999 40c6.66699 0 11.5 -1.66699 14.5 -5
s4.5 -10 4.5 -20v-365c0 -12.667 13.333 -28 40 -46c6 -4 10 -7 12 -9s3.66699 -5 5 -9s2 -9.66699 2 -17c0 -36.667 -17.667 -55 -53 -55c-14.667 0 -36.334 0.5 -65.001 1.5s-50 1.5 -64 1.5s-35.333 -0.5 -64 -1.5s-50.334 -1.5 -65.001 -1.5c-10 0 -17.667 4 -23 12
s-8 17.333 -8 28c0 8.66699 0.333008 15.334 1 20.001s2.66699 9.83398 6 15.501s8.33301 10.5 15 14.5c16.667 9.33301 27.5 19.5 32.5 30.5s7.5 32.167 7.5 63.5zM101.006 602.995c0 28.667 15.668 55.332 47.001 79.999s61.666 37 90.999 37c20.667 0 38.167 -5 52.5 -15
s21.5 -25 21.5 -45c0 -32 -17 -59 -51 -81s-68 -33 -102 -33c-20.667 0 -35.667 4.33301 -45 13s-14 23.334 -14 44.001z" />
    <glyph glyph-name="j" unicode="j" horiz-adv-x="370" 
d="M307 490v-365.003c0 -55.333 -4 -99.333 -12 -132s-23.667 -64.334 -47 -95.001c-26 -34 -63.833 -62.5 -113.5 -85.5s-92.834 -34.5 -129.501 -34.5c-20.667 0 -36.5 1 -47.5 3s-20.833 7.66699 -29.5 17s-13 23.333 -13 42c0 20 8.33301 41.833 25 65.5
s34.667 35.5 54 35.5c10 0 17.833 -2.66699 23.5 -8s9 -11.166 10 -17.499s2.83301 -12.166 5.5 -17.499s6.33398 -8 11.001 -8c17.333 0 28.666 20.667 33.999 62s8 111 8 209v167c0 14.667 -3 26 -9 34s-12.833 13 -20.5 15s-14.5 6.33301 -20.5 13s-9 16.334 -9 29.001
c0 6 2 11.333 6 16s10.5 9.33398 19.5 14.001s17.333 8.5 25 11.5s19.334 7.33301 35.001 13l36.5 13.5c62.667 24 106 36 130 36c18.667 0 28 -11 28 -33zM85 602.997c0 28.667 15.668 55.332 47.001 79.999s61.666 37 90.999 37c20.667 0 38.167 -5 52.5 -15
s21.5 -25 21.5 -45c0 -32 -17 -59 -51 -81s-68 -33 -102 -33c-20.667 0 -35.667 4.33301 -45 13s-14 23.334 -14 44.001z" />
    <glyph glyph-name="k" unicode="k" horiz-adv-x="704" 
d="M57 205l0.000976562 323.998c0 13.333 -1.66699 24.166 -5 32.499s-6.33301 13.5 -9 15.5s-7.33398 5 -14.001 9c-1.33301 0.666992 -3.66602 2 -6.99902 4s-5.66602 3.66699 -6.99902 5l-5.5 5.5c-2.33301 2.33301 -3.83301 5.33301 -4.5 9s-1 7.83398 -1 12.501
c0 22.667 28.667 44.667 86 66s103 32 137 32c20.667 0 34.334 -4.33301 41.001 -13s10 -26.667 10 -54c0 -33.333 -0.5 -83.166 -1.5 -149.499s-1.5 -116.166 -1.5 -149.499c0 -40 2.33301 -60 7 -60c10.667 0 34.667 16.167 72 48.5s56 55.5 56 69.5c0 5.33301 -2 9 -6 11
c-2.66699 1.33301 -6.66699 3.16602 -12 5.49902s-8.5 3.83301 -9.5 4.5s-3 2.16699 -6 4.5s-4.83301 4.83301 -5.5 7.5s-1.33398 6 -2.00098 10s-1 9 -1 15c0 30.667 10 46 30 46c14 0 36.167 -0.5 66.5 -1.5s53.166 -1.5 68.499 -1.5s38.333 0.5 69 1.5s53.667 1.5 69 1.5
s23 -10 23 -30c0 -20.667 -4 -35.667 -12 -45s-21.667 -15.333 -41 -18c-10.667 -1.33301 -21.5 -4 -32.5 -8s-20.167 -7.66699 -27.5 -11s-17.333 -9.5 -30 -18.5l-25 -18c-4 -3 -13.167 -10.333 -27.5 -22s-22.166 -18.167 -23.499 -19.5
c97.333 -139.333 170 -219 218 -239c8.66699 -3.33301 14.5 -7.83301 17.5 -13.5s4.5 -15.167 4.5 -28.5c0 -20 -2 -33 -6 -39s-14.333 -9 -31 -9c-10.667 0 -26.334 0.5 -47.001 1.5s-36 1.5 -46 1.5s-25.833 -0.5 -47.5 -1.5s-38.834 -1.5 -51.501 -1.5
c-14 0 -27.333 8.33301 -40 25l-105 133c-16 20 -27.333 30 -34 30c-8.66699 0 -14.5 -2.66699 -17.5 -8s-4.5 -16.333 -4.5 -33c0 -17.333 3.16699 -29.833 9.5 -37.5s15.833 -14.167 28.5 -19.5c16 -6.66699 25.333 -13.667 28 -21c2 -4.66699 3 -10 3 -16
c0 -20.667 -5.66699 -34.667 -17 -42s-28.333 -11 -51 -11c-13.333 0 -33 0.5 -59 1.5s-45.333 1.5 -58 1.5s-32 -0.5 -58 -1.5s-45.667 -1.5 -59 -1.5c-18.667 0 -31.167 3.66699 -37.5 11s-9.5 21 -9.5 41c0 9.33301 1.5 16.333 4.5 21s8.5 10.334 16.5 17.001
c20.667 16.667 31 56 31 118z" />
    <glyph glyph-name="l" unicode="l" horiz-adv-x="389" 
d="M93 349l0.000976562 167.999c0 6.66699 -0.333008 12.5 -1 17.5s-1.83398 9.66699 -3.50098 14s-3.16699 7.83301 -4.5 10.5s-3.5 5.5 -6.5 8.5l-5.5 5.5c-0.666992 0.666992 -2.66699 2.33398 -6 5.00098l-6 4c-0.666992 0.666992 -2.5 2 -5.5 4s-4.83301 3.5 -5.5 4.5
s-2 2.66699 -4 5s-3.33301 4.5 -4 6.5s-1.33398 4.5 -2.00098 7.5s-1 6.5 -1 10.5c0 22 28.667 44.167 86 66.5s103 33.5 137 33.5c20.667 0 34.667 -1.83301 42 -5.5s11 -9.83398 11 -18.501v-476c0 -49.333 1.83301 -81.666 5.5 -96.999s12.834 -27.333 27.501 -36
c16 -10 24 -24.667 24 -44c0 -30.667 -10.333 -46 -31 -46c-15.333 0 -38.333 0.5 -69 1.5s-53.667 1.5 -69 1.5s-38.333 -0.5 -69 -1.5s-53.667 -1.5 -69 -1.5c-14 0 -23.667 4.16699 -29 12.5s-8 22.5 -8 42.5c0 10.667 1.66699 18 5 22s11.333 8.33301 24 13
c16.667 6 27 23.833 31 53.5s6 99.167 6 208.5z" />
    <glyph glyph-name="m" unicode="m" horiz-adv-x="1000" 
d="M289 287l0.00195312 -149.001c0 -16.667 1.66699 -28.167 5 -34.5s9.66602 -11.833 18.999 -16.5c14 -8 21 -21.667 21 -41c0 -32.667 -13 -49 -39 -49c-12 0 -30 0.5 -54 1.5s-42 1.5 -54 1.5c-10 0 -29 -0.5 -57 -1.5s-53.333 -1.5 -76 -1.5c-17.333 0 -26 19 -26 57
c0 17.333 4.33301 28.333 13 33c14.667 7.33301 24.5 23.666 29.5 48.999s7.5 70 7.5 134c0 39.333 -1.66699 64.833 -5 76.5s-11.666 22.5 -24.999 32.5c-10.667 8 -16 20 -16 36c0 4.66699 1 9.16699 3 13.5s5.16699 8.5 9.5 12.5s8.66602 7.5 12.999 10.5
s10.333 6.16699 18 9.5l19.5 8.5c5.33301 2.33301 12.833 5.33301 22.5 9s16.834 6.5 21.501 8.5c58.667 24 100 36 124 36c13.333 0 20 -11.667 20 -35c0 -21.333 0.666992 -34.666 2 -39.999c32.667 24 62.167 42.5 88.5 55.5s54.166 19.5 83.499 19.5
c60.667 0 104 -24.667 130 -74c28 26 53.833 44.833 77.5 56.5s51.834 17.5 84.501 17.5c56 0 100 -17.167 132 -51.5s48 -78.833 48 -133.5c0 -102 1.83301 -167.667 5.5 -197s12.5 -47.333 26.5 -54c12 -5.33301 20 -11 24 -17s6 -15.667 6 -29c0 -29.333 -17 -44 -51 -44
c-12.667 0 -31.667 0.5 -57 1.5s-44.333 1.5 -57 1.5c-11.333 0 -30.833 -0.5 -58.5 -1.5s-50.5 -1.5 -68.5 -1.5c-15.333 0 -23 19 -23 57c0 17.333 4.33301 28.333 13 33c19.333 10 29 55.667 29 137c0 64 -6.5 108 -19.5 132s-31.5 36 -55.5 36
c-12.667 0 -21.5 -5.5 -26.5 -16.5s-7.5 -34.167 -7.5 -69.5v-144c0 -36.667 6.33301 -61.667 19 -75c10.667 -12 16 -26.333 16 -43s-2.16699 -28.667 -6.5 -36s-14.166 -11 -29.499 -11c-12 0 -30.333 0.5 -55 1.5s-43.334 1.5 -56.001 1.5s-31.334 -0.5 -56.001 -1.5
s-43 -1.5 -55 -1.5c-15.333 0 -23 19 -23 57c0 17.333 4.33301 28.333 13 33c10.667 5.33301 17 18.333 19 39s3 67 3 139c0 18 -0.833008 33.333 -2.5 46s-4.83398 25.834 -9.50098 39.501s-12.5 24 -23.5 31s-24.833 10.5 -41.5 10.5c-7.33301 0 -13 -1.66699 -17 -5
s-7.5 -13 -10.5 -29s-4.5 -39.667 -4.5 -71z" />
    <glyph glyph-name="n" unicode="n" horiz-adv-x="722" 
d="M301 353l-0.00292969 -224.999c0 -22.667 6 -36.334 18 -41.001c16 -6.66699 25.667 -14 29 -22c2.66699 -5.33301 4 -12.333 4 -21c0 -18.667 -3.66699 -31.167 -11 -37.5s-21.666 -9.5 -42.999 -9.5c-12 0 -30 0.5 -54 1.5s-42 1.5 -54 1.5s-30 -0.5 -54 -1.5
s-42 -1.5 -54 -1.5c-24 0 -39 3.16699 -45 9.5s-9 18.166 -9 35.499c0 4 0.166992 7.66699 0.5 11s1.16602 6.33301 2.49902 9l3 6c0.666992 1.33301 2.5 3.16602 5.5 5.49902s5 3.83301 6 4.5s3.66699 2.16699 8 4.5s6.83301 3.83301 7.5 4.5c8.66699 5.33301 14 18 16 38
s3 58 3 114c0 52 -1 85.333 -3 100s-8 26.667 -18 36c-0.666992 0.666992 -4.33398 3.16699 -11.001 7.5s-11 8.83301 -13 13.5s-3 11 -3 19c0 7.33301 1.16699 13.833 3.5 19.5s4.83301 10.334 7.5 14.001s7.83398 7.5 15.501 11.5s13.834 7 18.501 9s13.5 5.5 26.5 10.5
l30.5 11.5c73.333 29.333 121.666 44 144.999 44c12 0 19 -4.66699 21 -14c2 -14 3 -35 3 -63c67.333 43.333 123.333 65 168 65c54 0 97.5 -18.667 130.5 -56s49.5 -80.666 49.5 -129.999v-194c0 -14.667 1 -25.667 3 -33s7.66699 -15 17 -23
c4 -3.33301 9.16699 -6.66602 15.5 -9.99902s10.666 -6.83301 12.999 -10.5s3.5 -10.5 3.5 -20.5c0 -16.667 -2.33301 -29 -7 -37s-14.334 -12 -29.001 -12c-13.333 0 -33.166 0.5 -59.499 1.5s-46.166 1.5 -59.499 1.5s-33.166 -0.5 -59.499 -1.5
s-46.166 -1.5 -59.499 -1.5c-18.667 0 -30.5 3.83301 -35.5 11.5s-7.5 20.5 -7.5 38.5c0 7.33301 1.5 13.666 4.5 18.999s6.16699 9.16602 9.5 11.499s9 5.5 17 9.5c8.66699 4.66699 13 20.334 13 47.001c0 10 -0.333008 30.667 -1 62s-1 56.333 -1 75
c0 31.333 -7.16699 59.333 -21.5 84s-36.166 37 -65.499 37c-26.667 0 -40 -13 -40 -39z" />
    <glyph glyph-name="o" unicode="o" horiz-adv-x="611" 
d="M22 242c0 86.667 25.999 155.167 77.999 205.5s121.667 75.5 209 75.5c84.667 0 152.5 -22.167 203.5 -66.5s76.5 -108.166 76.5 -191.499c0 -86 -27.5 -153.333 -82.5 -202s-125.5 -73 -211.5 -73c-83.333 0 -149.666 21.667 -198.999 65s-74 105.666 -74 186.999z
M292.999 423c-27.333 0 -41 -40.333 -41 -121c0 -141.333 21.667 -212 65 -212c28 0 42 40.333 42 121c0 141.333 -22 212 -66 212z" />
    <glyph glyph-name="p" unicode="p" horiz-adv-x="667" 
d="M292 320l0.000976562 -160c0 -28 2.83301 -47 8.5 -57s15.167 -15 28.5 -15c52 0 78 46.667 78 140c0 34 -6.33301 69.833 -19 107.5s-31.334 56.5 -56.001 56.5c-15.333 0 -25.833 -4.5 -31.5 -13.5s-8.5 -28.5 -8.5 -58.5zM71.001 -3l0.00292969 237
c0 66 -2.33301 110.167 -7 132.5s-14.667 35.5 -30 39.5c-0.666992 0 -2.33398 0.833008 -5.00098 2.5s-4.33398 2.83398 -5.00098 3.50098s-2.16699 1.83398 -4.5 3.50098s-3.66602 3.33398 -3.99902 5.00098s-1.16602 3.66699 -2.49902 6s-2.16602 5.33301 -2.49902 9
s-0.5 7.5 -0.5 11.5c0 12.667 4.5 21.834 13.5 27.501s25.667 10.667 50 15s39.833 7.5 46.5 9.5c59.333 16 107 24 143 24c3.33301 0 6.16602 -0.333008 8.49902 -1s4.5 -1.66699 6.5 -3s3.66699 -2.66602 5 -3.99902s2.5 -3.33301 3.5 -6s1.83301 -4.66699 2.5 -6
s1.16699 -3.5 1.5 -6.5s0.5 -5 0.5 -6s0.333008 -3.16699 1 -6.5v-6c53.333 30 96 45 128 45c35.333 0 67.166 -7.66699 95.499 -23s51.166 -35.833 68.499 -61.5s30.5 -54.334 39.5 -86.001s13.5 -64.5 13.5 -98.5c0 -80.667 -23.833 -144.834 -71.5 -192.501
s-117.5 -71.5 -209.5 -71.5c-12 0 -33.333 2 -64 6v-85c0 -4.66699 0.333008 -9 1 -13s2.16699 -7.33301 4.5 -10s4 -4.83398 5 -6.50098s3.83301 -3.33398 8.5 -5.00098s7.5 -2.66699 8.5 -3s4.66699 -1.33301 11 -3s10.166 -2.5 11.499 -2.5c22 -5.33301 33 -21 33 -47
c0 -18 -2.33301 -29.667 -7 -35s-16 -8 -34 -8c-14.667 0 -37 0.5 -67 1.5s-52.667 1.5 -68 1.5s-38 -0.5 -68 -1.5s-52.333 -1.5 -67 -1.5c-21.333 0 -35 2.16699 -41 6.5s-9 16.833 -9 37.5c0 20 9.66699 35.333 29 46c13.333 7.33301 21.333 18.166 24 32.499
s4 41.833 4 82.5v14z" />
    <glyph glyph-name="q" unicode="q" 
d="M590 441l0.00390625 -282.001c0 -0.666992 -0.5 -18 -1.5 -52s-1.5 -63.333 -1.5 -88c0 -84 2 -127.667 6 -131c0.666992 -0.666992 3.5 -3 8.5 -7s8.66699 -7.33301 11 -10s5.16602 -6.5 8.49902 -11.5s5.83301 -10.667 7.5 -17s2.5 -13.166 2.5 -20.499
c0 -16 -3.16699 -27.333 -9.5 -34s-17.5 -10 -33.5 -10c-14.667 0 -36.667 0.5 -66 1.5s-51.333 1.5 -66 1.5s-36.667 -0.5 -66 -1.5s-51.333 -1.5 -66 -1.5c-18 0 -29.667 2.33301 -35 7s-8 16.334 -8 35.001c0 16.667 3.66699 28.667 11 36s17.666 12.666 30.999 15.999
s22.666 7.33301 27.999 12c10 8 15 59.667 15 155c-37.333 -32.667 -79.666 -49 -126.999 -49c-38 0 -71.167 7.83301 -99.5 23.5s-50.5 37 -66.5 64s-27.833 56.5 -35.5 88.5s-11.5 66 -11.5 102c0 86 25.5 150 76.5 192s121.5 63 211.5 63c24 0 50 -1.66699 78 -5
s45 -5 51 -5c20 0 41.167 3.66699 63.5 11s38.166 11 47.499 11c8.66699 0 15.5 -1.83301 20.5 -5.5s8.66699 -10.5 11 -20.5s3.66602 -19.167 3.99902 -27.5s0.5 -21.833 0.5 -40.5zM256.004 306.999c0 -46.667 7.83496 -88.002 23.502 -124.002s36.5 -54 62.5 -54
c6.66699 0 11.5 1.33301 14.5 4s5.66699 10.334 8 23.001s3.66602 29.334 3.99902 50.001s0.5 52.334 0.5 95.001c0 20.667 -0.333008 36.667 -1 48s-2.16699 25 -4.5 41s-6.83301 27.667 -13.5 35s-15.334 11 -26.001 11c-20.667 0 -37.167 -13.833 -49.5 -41.5
s-18.5 -56.834 -18.5 -87.501z" />
    <glyph glyph-name="r" unicode="r" horiz-adv-x="519" 
d="M76 182l-0.00488281 186.999c0 4 -2 7.33301 -6 10s-9.5 5.33398 -16.5 8.00098s-11.5 4.66699 -13.5 6c-12 8 -18 18.667 -18 32c0 6.66699 1.66699 12.5 5 17.5s8.83301 9.5 16.5 13.5s14.834 7.16699 21.501 9.5s16.834 5.5 30.501 9.5l33.5 10
c74.667 25.333 123.334 38 146.001 38c10.667 0 17.667 -2.16699 21 -6.5s5 -11.5 5 -21.5c0 -2 -0.5 -6.5 -1.5 -13.5s-1.5 -12.167 -1.5 -15.5c0 -6 1.33301 -9 4 -9c3.33301 0 11 5.5 23 16.5s26.833 22 44.5 33s34.834 16.5 51.501 16.5
c31.333 0 53.833 -14.5 67.5 -43.5s20.5 -61.167 20.5 -96.5c0 -65.333 -17.333 -98 -52 -98c-14.667 0 -36 14.5 -64 43.5s-51 43.5 -69 43.5s-27 -8.33301 -27 -25v-174c0 -24.667 4.16699 -43 12.5 -55s24.5 -22.333 48.5 -31c14 -4.66699 23.5 -9.83398 28.5 -15.501
s7.5 -15.5 7.5 -29.5c0 -30 -10.333 -45 -31 -45c-11.333 0 -32.666 0.5 -63.999 1.5s-56 1.5 -74 1.5c-16.667 0 -41.667 -0.5 -75 -1.5s-58.333 -1.5 -75 -1.5c-20.667 0 -34.834 3.66699 -42.501 11s-11.5 21 -11.5 41c0 12.667 1.83301 21.334 5.5 26.001
s9.83398 8.66699 18.501 12c20.667 8 31 39.667 31 95z" />
    <glyph glyph-name="s" unicode="s" horiz-adv-x="500" 
d="M238 523c28 0 53.9971 -2.50195 77.9971 -7.50195s37 -7.5 39 -7.5c2.66699 0 8.16699 0.833008 16.5 2.5s13.833 2.5 16.5 2.5c16 0 28.667 -14.333 38 -43s14 -53 14 -73c0 -16.667 -3 -28.667 -9 -36s-17.333 -11 -34 -11c-8 0 -16.667 3.83301 -26 11.5
s-17.666 16.334 -24.999 26.001s-18.166 18.334 -32.499 26.001s-29.833 11.5 -46.5 11.5c-22 0 -33 -7.66699 -33 -23c0 -10.667 7.83301 -20.167 23.5 -28.5s34.667 -16.5 57 -24.5s44.833 -17.5 67.5 -28.5s41.834 -27 57.501 -48s23.5 -45.833 23.5 -74.5
c0 -64.667 -24 -115.5 -72 -152.5s-105 -55.5 -171 -55.5c-21.333 0 -39.333 0.5 -54 1.5s-30.5 3.83301 -47.5 8.5s-30.667 11.167 -41 19.5s-19 20.166 -26 35.499s-10.5 33.666 -10.5 54.999c0 52.667 12.667 79 38 79c9.33301 0 18.833 -5.33301 28.5 -16
s18.667 -22.167 27 -34.5s20.833 -23.833 37.5 -34.5s35.667 -16 57 -16h4c10.667 0 19.334 0.166992 26.001 0.5s13.667 2.5 21 6.5s11 9.66699 11 17c0 11.333 -8.33301 21.333 -25 30s-37 17.167 -61 25.5s-48.167 18.333 -72.5 30s-44.833 28.834 -61.5 51.501
s-25 50 -25 82c0 56.667 17.667 102.834 53 138.501s81.666 53.5 138.999 53.5z" />
    <glyph glyph-name="t" unicode="t" horiz-adv-x="426" 
d="M62 150l0.000976562 239.999c0 8 -7 17.5 -21 28.5s-21 22.833 -21 35.5c0 5.33301 1.66699 10.5 5 15.5s9 10.333 17 16l23.5 16l31 19.5l34.5 22c80.667 54 125.334 81 134.001 81c14 0 21 -11.667 21 -35c0 -32 0.666992 -52.333 2 -61s4.66602 -13 9.99902 -13
c7.33301 0 22.666 0.333008 45.999 1s38.333 1 45 1c10.667 0 16 -7 16 -21c0 -13.333 -5.33301 -38 -16 -74c-4 -14 -23.667 -21 -59 -21h-47v-159c0 -47.333 4.33301 -79.666 13 -96.999s20.667 -26 36 -26c5.33301 0 13 0.333008 23 1s17.333 1 22 1
c10 0 17.167 -1.33301 21.5 -4s6.5 -9 6.5 -19c0 -24 -11.167 -44.667 -33.5 -62s-46.5 -29.333 -72.5 -36s-50.333 -10 -73 -10c-109.333 0 -164 53.333 -164 160z" />
    <glyph glyph-name="u" unicode="u" horiz-adv-x="722" 
d="M67 137l0.000976562 199.005c0 48 -7 77 -21 87l-16.5 10.5c-7 4.33301 -11.833 7.5 -14.5 9.5s-5.33398 5.66699 -8.00098 11s-4 12 -4 20c0 17.333 4.66699 28.666 14 33.999s23.666 8 42.999 8c11.333 0 28.333 -0.5 51 -1.5s39.667 -1.5 51 -1.5s28.333 0.5 51 1.5
s39.667 1.5 51 1.5c20 0 30 -12.667 30 -38c0 -18.667 -1 -46.667 -3 -84s-3 -65.333 -3 -84c0 -66.667 5.33301 -113.167 16 -139.5s33.334 -39.5 68.001 -39.5c17.333 0 29 3.66699 35 11s9 18.666 9 33.999v212c0 4 -0.5 7.66699 -1.5 11s-2 6 -3 8s-2.66699 4 -5 6
s-4 3.33301 -5 4s-2.83301 1.66699 -5.5 3l-5 3c-2 1.33301 -5 3 -9 5l-9 4.5c-2 1 -4.33301 2.66699 -7 5s-4.5 4.83301 -5.5 7.5s-2 6.16699 -3 10.5s-1.5 9.5 -1.5 15.5c0 30 10 45 30 45c12 0 29.667 -0.5 53 -1.5s40.666 -1.5 51.999 -1.5c12 0 29.5 0.5 52.5 1.5
s40.5 1.5 52.5 1.5c27.333 0 41 -16 41 -48c0 -36 -0.5 -81.833 -1.5 -137.5s-1.5 -100.834 -1.5 -135.501c0 -34 12 -57 36 -69l13 -6.5c6 -3 10.333 -5.33301 13 -7s5.33398 -4.33398 8.00098 -8.00098s4 -7.83398 4 -12.501c0 -24 -14.333 -40.667 -43 -50l-198 -69
c-10.667 -4 -22 -6 -34 -6c-10 0 -15 11.667 -15 35v59c-30 -26.667 -58.833 -45.167 -86.5 -55.5s-61.834 -15.5 -102.501 -15.5c-53.333 0 -93.666 11.5 -120.999 34.5s-41 60.5 -41 112.5z" />
    <glyph glyph-name="v" unicode="v" horiz-adv-x="630" 
d="M218 49l-132.998 255c-38 72 -63 112.667 -75 122c-2 1.33301 -5 3.5 -9 6.5s-7 5.5 -9 7.5l-7.5 7.5c-3 3 -5 6.5 -6 10.5s-1.5 8.66699 -1.5 14c0 14.667 2 25.667 6 33s12.333 11 25 11c16 0 39.667 -0.5 71 -1.5s54.666 -1.5 69.999 -1.5s38.666 0.5 69.999 1.5
s55 1.5 71 1.5c18.667 0 28 -13.667 28 -41c0 -8 -1 -15 -3 -21s-4.66699 -10.667 -8 -14s-6.33301 -6.16602 -9 -8.49902s-5.66699 -4.33301 -9 -6s-5.33301 -2.5 -6 -2.5c-4 -2.66699 -6 -8.33398 -6 -17.001c0 -10 9.83301 -34.5 29.5 -73.5s35.5 -64.833 47.5 -77.5
c12 14 27.167 38.5 45.5 73.5s27.5 60.167 27.5 75.5c0 10.667 -2.66699 17 -8 19c-2.66699 1.33301 -8.5 3.33301 -17.5 6s-14.833 4.83398 -17.5 6.50098s-5.66699 5.5 -9 11.5s-5 13.667 -5 23c0 30.667 10.667 46 32 46c12 0 30 -0.5 54 -1.5s42 -1.5 54 -1.5
s30 0.5 54 1.5s42 1.5 54 1.5c13.333 0 22.5 -2.83301 27.5 -8.5s7.5 -15.5 7.5 -29.5c0 -19.333 -6.33301 -32.333 -19 -39c-24.667 -12 -37.667 -18.667 -39 -20c-18.667 -13.333 -48.667 -53.333 -90 -120l-123 -201c-22 -36.667 -40.833 -63.834 -56.5 -81.501
s-30.5 -26.5 -44.5 -26.5c-21.333 0 -42.333 19.667 -63 59z" />
    <glyph glyph-name="w" unicode="w" horiz-adv-x="963" 
d="M163 150l-105 196.997l-43 79c-1.33301 2 -4.66602 5.33301 -9.99902 10s-10 9.83398 -14 15.501s-6 12.5 -6 20.5c0 29.333 11.667 44 35 44c13.333 0 33.666 -0.5 60.999 -1.5s48 -1.5 62 -1.5s34.5 0.5 61.5 1.5s47.5 1.5 61.5 1.5c17.333 0 26 -14.333 26 -43
c0 -17.333 -6.66699 -31.666 -20 -42.999c-5.33301 -4 -8 -11.667 -8 -23c0 -12.667 12.833 -41.167 38.5 -85.5s42.167 -66.5 49.5 -66.5c5.33301 0 15.666 14.5 30.999 43.5s23 47.167 23 54.5c0 9.33301 -5 22.333 -15 39s-19.333 28 -28 34
c-11.333 7.33301 -18.833 13.5 -22.5 18.5s-5.5 13.167 -5.5 24.5c0 12.667 2.33301 23.667 7 33s11.334 14 20.001 14c15.333 0 38.333 -0.5 69 -1.5s53.667 -1.5 69 -1.5s38.333 0.5 69 1.5s53.667 1.5 69 1.5c17.333 0 26 -13.667 26 -41c0 -8 -1.33301 -14.333 -4 -19
s-7.66699 -9.66699 -15 -15l-11 -8c-4.66699 -3.33301 -7 -11 -7 -23c0 -13.333 5.5 -32.333 16.5 -57s22.5 -46.167 34.5 -64.5s19.667 -27.5 23 -27.5c8.66699 0 22.667 20.667 42 62s29 71 29 89c0 5.33301 -1.66699 10.333 -5 15c-2 2.66699 -10.667 8.83398 -26 18.501
s-23 18.834 -23 27.501c0 28.667 10 43 30 43c11.333 0 28.333 -0.5 51 -1.5s39.667 -1.5 51 -1.5s28.333 0.5 51 1.5s39.667 1.5 51 1.5c23.333 0 35 -13 35 -39c0 -9.33301 -2 -16.666 -6 -21.999s-10.333 -10.5 -19 -15.5s-15 -9.5 -19 -13.5
c-11.333 -10.667 -24 -25.334 -38 -44.001s-29 -40.667 -45 -66l-41 -66l-41 -69c-16 -27.333 -25.667 -43.666 -29 -48.999c-6 -9.33301 -13 -21 -21 -35l-18.5 -32l-15.5 -25.5c-6 -9.66699 -11 -16.834 -15 -21.501s-8.5 -9.5 -13.5 -14.5s-9.83301 -8.5 -14.5 -10.5
s-9.66699 -3 -15 -3c-28.667 0 -63 41.333 -103 124l-17 36.5l-16 34.5c-4 8.66699 -8.33301 17.5 -13 26.5s-8.66699 15.667 -12 20s-6.33301 6.5 -9 6.5c-2 0 -4.66699 -2.16699 -8 -6.5s-7.66602 -11 -12.999 -20l-16 -27l-20 -34.5l-21 -36
c-49.333 -82.667 -86.333 -124 -111 -124c-14 0 -26.167 7.16699 -36.5 21.5s-28.833 46.5 -55.5 96.5c-2.66699 6 -5 10.667 -7 14s-4.33301 7.66602 -7 12.999s-5.33398 10.333 -8.00098 15z" />
    <glyph glyph-name="x" unicode="x" horiz-adv-x="741" 
d="M256 243l-49.999 50.999c-80.667 85.333 -127.667 129.333 -141 132c-12 2.66699 -20.667 4.83398 -26 6.50098s-10.333 5.5 -15 11.5s-7 14 -7 24c0 13.333 3 24.666 9 33.999s15 14 27 14c17.333 0 43.333 -0.5 78 -1.5s60.667 -1.5 78 -1.5s43.333 0.5 78 1.5
s60.667 1.5 78 1.5s26 -14.667 26 -44c0 -16 -6.33301 -30.333 -19 -43c-4.66699 -4.66699 -7 -8.66699 -7 -12c0 -2.66699 1.16699 -5.83398 3.5 -9.50098s5.83301 -7.83398 10.5 -12.501s8.83398 -8.66699 12.501 -12l14 -12.5c5.66699 -5 9.5 -8.16699 11.5 -9.5
c10 7.33301 20.5 16.666 31.5 27.999s16.5 19.333 16.5 24c0 3.33301 -4 7.66602 -12 12.999c-2 1.33301 -5.16699 3.33301 -9.5 6s-7.16602 4.5 -8.49902 5.5s-3.33301 2.83301 -6 5.5s-4.33398 5.33398 -5.00098 8.00098s-1.33398 6.33398 -2.00098 11.001
s-1 10.334 -1 17.001c0 24.667 8 37 24 37c12.667 0 31.667 -0.5 57 -1.5s44.333 -1.5 57 -1.5s31.667 0.5 57 1.5s44.333 1.5 57 1.5c14 0 23.5 -2.33301 28.5 -7s7.5 -14.334 7.5 -29.001c0 -12.667 -2.83301 -22 -8.5 -28s-18.834 -14.667 -39.501 -26
c-32 -17.333 -90 -61.333 -174 -132l36 -37c10.667 -10.667 22.167 -21.5 34.5 -32.5l28 -25.5c6.33301 -6 16.666 -14.833 30.999 -26.5l28.5 -23l37 -29l40 -31.5c13.333 -10.667 20 -23.667 20 -39c0 -20 -5.16699 -33.833 -15.5 -41.5s-29.166 -11.5 -56.499 -11.5
c-14.667 0 -37 0.5 -67 1.5s-52.667 1.5 -68 1.5c-14.667 0 -37.167 -0.5 -67.5 -1.5s-52.833 -1.5 -67.5 -1.5c-17.333 0 -28.5 2.83301 -33.5 8.5s-7.5 19.5 -7.5 41.5c0 14 4 24.333 12 31c8 5.33301 12 11.333 12 18c0 10 -7.33301 23 -22 39s-27.667 27.333 -39 34
c-11.333 -6 -22.833 -14.5 -34.5 -25.5s-17.5 -21.5 -17.5 -31.5c0 -12.667 7 -21 21 -25c13.333 -4 22.166 -8 26.499 -12s6.5 -12.333 6.5 -25c0 -22 -5.5 -36.333 -16.5 -43s-28.833 -10 -53.5 -10c-12 0 -29.667 0.5 -53 1.5s-40.666 1.5 -51.999 1.5
s-28.666 -0.5 -51.999 -1.5s-41 -1.5 -53 -1.5c-28.667 0 -43 11.667 -43 35c0 14 1.66699 24.667 5 32s11 15 23 23c4 2.66699 15.167 7.83398 33.5 15.501s32.166 14.834 41.499 21.501c66 46.667 116.667 86.334 152 119.001z" />
    <glyph glyph-name="y" unicode="y" horiz-adv-x="630" 
d="M563 386l-108.003 -192.998c-31.333 -54.667 -60.666 -109.667 -87.999 -165c-82 -166.667 -170.333 -250 -265 -250c-27.333 0 -49.666 6 -66.999 18s-26 31 -26 57c0 24.667 5.16699 47.5 15.5 68.5s26.833 31.5 49.5 31.5c14.667 0 28.167 -3.66699 40.5 -11
s22.5 -11 30.5 -11c14 0 31.667 7.33301 53 22s32 29.334 32 44.001c0 28.667 -27.333 104 -82 226c-0.666992 0.666992 -4 8 -10 22l-14 32c-3.33301 7.33301 -8.66602 18.333 -15.999 33s-13.833 27 -19.5 37l-19 32c-7 11.333 -14 21 -21 29s-13.833 14 -20.5 18
c-12.667 8.66699 -20.5 15.834 -23.5 21.501s-4.5 15.167 -4.5 28.5c0 14.667 2.66699 25 8 31s15.333 9 30 9c13.333 0 33.833 -0.5 61.5 -1.5s48.167 -1.5 61.5 -1.5c14 0 34.667 0.5 62 1.5s47.666 1.5 60.999 1.5c16.667 0 28.667 -3.16699 36 -9.5s11 -17.5 11 -33.5
c0 -14.667 -6 -30.334 -18 -47.001c-0.666992 -1.33301 -2.33398 -3.16602 -5.00098 -5.49902s-4.66699 -4.83301 -6 -7.5s-2 -5.33398 -2 -8.00098c0 -4 1 -8.83301 3 -14.5s4 -10.834 6 -15.501s5.5 -12 10.5 -22l12.5 -25c22 -46 35.333 -69 40 -69
c9.33301 0 22.333 19.167 39 57.5s25 63.833 25 76.5c0 17.333 -8.33301 33.666 -25 48.999c-17.333 16 -26 28.667 -26 38c0 24 11.667 36 35 36c10 0 25.333 -0.5 46 -1.5s36.334 -1.5 47.001 -1.5c10 0 25.333 0.5 46 1.5s36.334 1.5 47.001 1.5c30.667 0 46 -11 46 -33
c0 -14.667 -3.5 -25.334 -10.5 -32.001s-20.833 -15 -41.5 -25c-14 -6.66699 -26.333 -20 -37 -40z" />
    <glyph glyph-name="z" unicode="z" horiz-adv-x="500" 
d="M48 72l146.002 214.998c17.333 25.333 26 42.333 26 51c0 6 -15 9 -45 9c-19.333 0 -43.833 -5.16699 -73.5 -15.5s-45.834 -15.5 -48.501 -15.5c-12 0 -18 12.667 -18 38c0 27.333 9.66699 59.333 29 96l7 14c3.33301 6.66699 5.83301 11.5 7.5 14.5s4 6.83301 7 11.5
s5.66699 8.33398 8 11.001s5.33301 5.33398 9 8.00098s7.5 4.5 11.5 5.5s8.33301 1.5 13 1.5c15.333 0 38.666 -0.5 69.999 -1.5s55 -1.5 71 -1.5s39.667 0.5 71 1.5s54.666 1.5 69.999 1.5c26 0 39 -11 39 -33c0 -6.66699 -9.66699 -24.334 -29 -53.001l-134 -201
c-14.667 -23.333 -22 -38.666 -22 -45.999s6 -11 18 -11c26.667 0 53.167 5 79.5 15s47.5 20.167 63.5 30.5s25.333 15.5 28 15.5c8 0 14.167 -3.66699 18.5 -11s6.5 -15.666 6.5 -24.999c0 -24 -8 -59.667 -24 -107c-14 -42 -24.667 -68 -32 -78s-22.666 -15 -45.999 -15
c-17.333 0 -43.333 0.5 -78 1.5s-60.667 1.5 -78 1.5s-43.333 -0.5 -78 -1.5s-60.667 -1.5 -78 -1.5c-26 0 -39 8.66699 -39 26c0 9.33301 8 25.666 24 48.999z" />
    <glyph glyph-name="braceleft" unicode="{" horiz-adv-x="333" 
d="M61 -76l0.000976562 187.002c0 34 -5.16699 59.833 -15.5 77.5s-30.5 31.167 -60.5 40.5c30.667 10 51 24.5 61 43.5s15 49.5 15 91.5v187c0 23.333 1.83301 42.833 5.5 58.5s11 29 22 40s22.833 19.667 35.5 26s31.334 11 56.001 14s48.834 5 72.501 6
s55.834 1.5 96.501 1.5v-24c-48.667 0 -73 -39 -73 -117v-176c0 -47.333 -5 -81.833 -15 -103.5s-32 -37.167 -66 -46.5v-2c33.333 -8.66699 55.166 -23.334 65.499 -44.001s15.5 -50.334 15.5 -89.001v-177c0 -77.333 24.333 -116 73 -116v-24c-40.667 0 -73 0.5 -97 1.5
s-48.333 3.16699 -73 6.5s-43.334 8 -56.001 14s-24.334 14.5 -35.001 25.5s-17.834 24.5 -21.501 40.5s-5.5 35.333 -5.5 58z" />
    <glyph glyph-name="bar" unicode="|" horiz-adv-x="222" 
d="M51 750h120v-1000h-120v1000z" />
    <glyph glyph-name="braceright" unicode="}" horiz-adv-x="333" 
d="M272 111l0.000976562 -187.001c0 -22.667 -1.83301 -42 -5.5 -58s-10.834 -29.5 -21.501 -40.5s-22.334 -19.5 -35.001 -25.5s-31.334 -10.667 -56.001 -14s-49 -5.5 -73 -6.5s-56.333 -1.5 -97 -1.5v24c48.667 0 73 38.667 73 116v177
c0 38.667 5.16699 68.334 15.5 89.001s32.166 35.334 65.499 44.001v2c-34 9.33301 -56 24.833 -66 46.5s-15 56.167 -15 103.5v176c0 78 -24.333 117 -73 117v24c40.667 0 72.834 -0.5 96.501 -1.5s47.834 -3 72.501 -6s43.334 -7.66699 56.001 -14s24.5 -15 35.5 -26
s18.333 -24.333 22 -40s5.5 -35.167 5.5 -58.5v-187c0 -42 5 -72.5 15 -91.5s30.333 -33.167 61 -42.5v-2c-30 -8.66699 -50.167 -21.834 -60.5 -39.501s-15.5 -43.5 -15.5 -77.5z" />
    <glyph glyph-name="asciitilde" unicode="~" horiz-adv-x="600" 
d="M105 163l-36.0029 96c30.667 57.333 72.334 86 125.001 86c27.333 0 65.666 -11.333 114.999 -34c50.667 -22.667 83.334 -34 98.001 -34c12.667 0 25.167 4.33301 37.5 13s21.5 17 27.5 25s13.667 19.333 23 34l36 -96c-13.333 -18.667 -24.666 -33.167 -33.999 -43.5
s-22.166 -20 -38.499 -29s-33.833 -13.5 -52.5 -13.5c-25.333 0 -60 11.333 -104 34s-81.667 34 -113 34c-34.667 0 -62.667 -24 -84 -72z" />
    <glyph glyph-name="exclamdown" unicode="&#xa1;" horiz-adv-x="389" 
d="M297 428c0 -31.333 -8.66699 -55 -26 -71s-42 -24 -74 -24s-56.667 8.16699 -74 24.5s-26 39.833 -26 70.5c0 31.333 8.66699 55 26 71s42 24 74 24s56.667 -8.16699 74 -24.5s26 -39.833 26 -70.5zM88 -75c0 26.667 2.16602 58.001 6.49902 94.001
s10.833 73.167 19.5 111.5s21.167 70.5 37.5 96.5s34.833 39 55.5 39c18 0 34.667 -23.5 50 -70.5s26.333 -96.5 33 -148.5s10 -95.333 10 -130c0 -30.667 -8.16699 -51.834 -24.5 -63.501s-41.166 -17.5 -74.499 -17.5c-75.333 0 -113 29.667 -113 89z" />
    <glyph glyph-name="cent" unicode="&#xa2;" 
d="M370 594l0.000976562 -72.999c1.33301 0 8.5 -0.666992 21.5 -2s21.333 -2.33301 25 -3s11.667 -2 24 -4s21 -4 26 -6s12.333 -4.66699 22 -8s16.667 -7.16602 21 -11.499l15 -15c5.66699 -5.66699 9.5 -12.334 11.5 -20.001s3 -16.167 3 -25.5c0 -22.667 -5 -43 -15 -61
s-24.333 -27 -43 -27c-16 0 -31 4.33301 -45 13s-25 18.334 -33 29.001s-17.667 20.334 -29 29.001s-23 13 -35 13c-36.667 0 -55 -32.667 -55 -98c0 -50 9.83301 -93.167 29.5 -129.5s49.5 -54.5 89.5 -54.5c19.333 0 37.5 3.16699 54.5 9.5s30.667 12.666 41 18.999
s16.833 9.5 19.5 9.5c11.333 0 18.5 -3.33301 21.5 -10s4.5 -16.334 4.5 -29.001c0 -16.667 -4.16699 -31.834 -12.5 -45.501s-17.833 -24.667 -28.5 -33s-25.167 -16.5 -43.5 -24.5s-33.333 -13.667 -45 -17s-26.5 -7.33301 -44.5 -12v-86
c0 -11.333 -2.33301 -18.333 -7 -21s-16.667 -4 -36 -4c-15.333 0 -24.833 1.33301 -28.5 4s-5.5 7.33398 -5.5 14.001v86c-72 2 -126.667 24.833 -164 68.5s-56 102.5 -56 176.5c0 73.333 19 133.666 57 180.999s92.333 77.333 163 90v77c0 6.66699 2.66699 11 8 13
s15.666 3 30.999 3c25.333 0 38 -5 38 -15z" />
    <glyph glyph-name="sterling" unicode="&#xa3;" 
d="M148 292h-67.9971c-6.66699 0 -11.334 2.83301 -14.001 8.5s-4 16.167 -4 31.5s1.33301 25.333 4 30s7.66699 7 15 7h29c-14 28 -21 60.333 -21 97c0 76 24.5 130.667 73.5 164s111.5 50 187.5 50c12.667 0 28.334 -0.833008 47.001 -2.5
s41.334 -4.83398 68.001 -9.50098s49 -12.5 67 -23.5s27 -24.5 27 -40.5c0 -38 -5.66699 -73 -17 -105s-27.333 -48 -48 -48c-15.333 0 -26.5 4.16699 -33.5 12.5s-11.667 18.5 -14 30.5s-5.5 23.833 -9.5 35.5s-12.833 21.667 -26.5 30s-32.834 12.5 -57.501 12.5
c-16.667 0 -32 -5.16699 -46 -15.5s-21 -23.5 -21 -39.5c0 -6 0.333008 -11.333 1 -16s2.33398 -9.83398 5.00098 -15.501l6 -12.5c1.33301 -2.66699 4.33301 -7.66699 9 -15s7.66699 -12.333 9 -15l44 -74h114c13.333 0 21.833 -2.66699 25.5 -8s5.5 -15.333 5.5 -30
c0 -17.333 -1.33301 -28.166 -4 -32.499s-9.66699 -6.5 -21 -6.5h-98c0.666992 -24.667 -4.33301 -48 -15 -70s-26 -39.333 -46 -52c33.333 -4.66699 63 -13.667 89 -27c22.667 -10.667 40.334 -16 53.001 -16c18 0 34.333 8.16699 49 24.5s27.667 24.5 39 24.5
c28 0 42 -8 42 -24c0 -12 -3.33301 -26.5 -10 -43.5s-16.834 -34.833 -30.501 -53.5s-33.334 -34.5 -59.001 -47.5s-54.834 -19.5 -87.501 -19.5c-36.667 0 -78.334 6.33301 -125.001 19s-74.667 19 -84 19s-23.333 -4.33301 -42 -13s-30.667 -13 -36 -13
c-8.66699 0 -17.334 5.83301 -26.001 17.5s-13 21.834 -13 30.501c0 20 11.167 40.5 33.5 61.5s43.5 32.833 63.5 35.5c4.66699 0.666992 7 15.667 7 45c0 9.33301 -1.33301 19 -4 29s-5 17.667 -7 23s-6.16699 14 -12.5 26z" />
    <glyph glyph-name="currency" unicode="&#xa4;" 
d="M323 598c60 0 106.665 -14.667 139.998 -44l57 57l61 -61l-58 -58c32 -31.333 48 -78.666 48 -141.999c0 -58 -15.333 -104.667 -46 -140l58 -58l-61 -61l-57 57c-33.333 -30.667 -80.666 -46 -141.999 -46s-108.666 15.333 -141.999 46l-57 -57l-61 61l58 58
c-30.667 35.333 -46 82 -46 140c0 63.333 16 110.666 48 141.999l-58 58l61 61l57 -57c33.333 29.333 80 44 140 44zM322.998 488c-37.333 0 -68.833 -13.5 -94.5 -40.5s-38.5 -59.5 -38.5 -97.5s12.833 -70.5 38.5 -97.5s57.167 -40.5 94.5 -40.5s68.833 13.5 94.5 40.5
s38.5 59.5 38.5 97.5s-12.833 70.5 -38.5 97.5s-57.167 40.5 -94.5 40.5z" />
    <glyph glyph-name="yen" unicode="&#xa5;" 
d="M197 297l-42.002 72.9941h-122c-13.333 0 -20 6 -20 18v46c0 12 6.66699 18 20 18h73l-22 36c-4 6.66699 -9.16699 14.834 -15.5 24.501l-13.5 20.5c-2.66699 4 -6.16699 8.83301 -10.5 14.5s-8 9.66699 -11 12s-6.66699 4.66602 -11 6.99902
s-9.16602 4.16602 -14.499 5.49902c-15.333 3.33301 -25.333 7.83301 -30 13.5s-7 15.834 -7 30.501c0 10.667 0.333008 19.167 1 25.5s3.33398 12.333 8.00098 18s11.667 8.5 21 8.5c18 0 44.333 -0.5 79 -1.5s60.667 -1.5 78 -1.5c18 0 44.333 0.5 79 1.5
s60.667 1.5 78 1.5c22.667 0 37.834 -3.16699 45.501 -9.5s11.5 -17.166 11.5 -32.499c0 -14 -2.66699 -24.667 -8 -32s-14.333 -14.666 -27 -21.999c-9.33301 -5.33301 -14 -10.666 -14 -15.999c0 -7.33301 10 -26 30 -56s33 -45 39 -45c8 0 19.667 10 35 30
c28.667 38.667 43 61.667 43 69c0 8 -3 14 -9 18c-22 14 -33 29 -33 45c0 11.333 0.666992 20.166 2 26.499s4.66602 12 9.99902 17s13.333 7.5 24 7.5c11.333 0 28.5 -0.5 51.5 -1.5s40.167 -1.5 51.5 -1.5s28.5 0.5 51.5 1.5s40.167 1.5 51.5 1.5
c21.333 0 32 -13.667 32 -41c0 -15.333 -2.33301 -27.166 -7 -35.499s-14 -14.833 -28 -19.5c-22.667 -7.33301 -62.667 -47.333 -120 -120h64c13.333 0 20 -6 20 -18v-46c0 -12 -6.66699 -18 -20 -18h-127l-50 -73h177c13.333 0 20 -6 20 -18v-46
c0 -12 -6.66699 -18 -20 -18h-178v-46c0 -19.333 6.66699 -35.666 20 -48.999s33 -22.333 59 -27c10 -2 17 -3.66699 21 -5s7.66699 -5.33301 11 -12s5 -16.667 5 -30c0 -32.667 -19.667 -49 -59 -49c-18 0 -45.167 0.5 -81.5 1.5s-63.5 1.5 -81.5 1.5
s-45.167 -0.5 -81.5 -1.5s-63.5 -1.5 -81.5 -1.5c-22 0 -37.5 3.83301 -46.5 11.5s-13.5 19.834 -13.5 36.501c0 12.667 3.33301 22.334 10 29.001s18 13 34 19c0.666992 0 4.5 1 11.5 3s12.5 4 16.5 6s9 4.83301 15 8.5s10.5 8.5 13.5 14.5s4.5 13 4.5 21v69h-176
c-13.333 0 -20 6 -20 18v46c0 12 6.66699 18 20 18h164z" />
    <glyph glyph-name="brokenbar" unicode="&#xa6;" horiz-adv-x="222" 
d="M51 675h120v-350h-120v350zM51 175h120v-350h-120v350z" />
    <glyph glyph-name="section" unicode="&#xa7;" horiz-adv-x="500" 
d="M57 535c0 51.333 18.335 91.166 55.002 119.499s79.667 42.5 129 42.5c14 0 35 -2.66699 63 -8s47.667 -8 59 -8c8 0 16.667 1.16699 26 3.5s16.333 3.5 21 3.5c13.333 0 20 -24.333 20 -73c0 -37.333 -2.66699 -63.5 -8 -78.5s-15.666 -22.5 -30.999 -22.5
c-10 0 -18.667 4.16699 -26 12.5s-13.333 17.5 -18 27.5s-14.334 19.167 -29.001 27.5s-33.667 12.5 -57 12.5c-10 0 -18 -0.333008 -24 -1s-11.833 -3.5 -17.5 -8.5s-8.5 -11.833 -8.5 -20.5c0 -6 6.66699 -13 20 -21s30.166 -16.167 50.499 -24.5s42.333 -19.833 66 -34.5
s45.667 -30.667 66 -48s37.166 -40.333 50.499 -69s20 -60 20 -94c0 -18 -7.33301 -42.333 -22 -73s-33.334 -52 -56.001 -64c36.667 -38 55 -83.333 55 -136c0 -8.66699 -1.33301 -18.667 -4 -30s-8.5 -25.166 -17.5 -41.499s-20.333 -31 -34 -44
s-33.167 -24.167 -58.5 -33.5s-54.333 -14 -87 -14c-21.333 0 -45.166 3.16699 -71.499 9.5s-44.833 9.5 -55.5 9.5c-4.66699 0 -11.834 -1.5 -21.501 -4.5s-16.5 -4.5 -20.5 -4.5c-11.333 0 -18.333 6.5 -21 19.5s-4 38.5 -4 76.5c0 36 2.33301 59 7 69
s15.334 15 32.001 15c11.333 0 20.666 -2.83301 27.999 -8.5s13.166 -12.667 17.499 -21s9.5 -16.666 15.5 -24.999s15.833 -15.333 29.5 -21s31.167 -8.5 52.5 -8.5c42 0 63 9.66699 63 29c0 12 -7.16699 23.5 -21.5 34.5s-32.166 20.667 -53.499 29s-44.333 19.333 -69 33
s-47.667 28.667 -69 45s-39.166 38.666 -53.499 66.999s-21.5 60.5 -21.5 96.5c0 62.667 25.667 112.667 77 150c-0.666992 0.666992 -3.16699 4 -7.5 10s-6.83301 9.5 -7.5 10.5l-6.5 9.5c-3.66699 5.33301 -5.83398 9 -6.50098 11s-2.16699 5.5 -4.5 10.5
s-3.83301 9.16699 -4.5 12.5s-1.66699 7.5 -3 12.5s-2.16602 10 -2.49902 15s-0.5 10.5 -0.5 16.5zM189.002 279l93 -53.001c28.667 -16 45 -24 49 -24c5.33301 0 10.5 4.16699 15.5 12.5s7.5 15.5 7.5 21.5c0 23.333 -28.667 49.333 -86 78c-61.333 34 -94 51 -98 51
c-6.66699 0 -12 -4.16699 -16 -12.5s-6 -16.5 -6 -24.5c0 -17.333 13.667 -33.666 41 -48.999z" />
    <glyph glyph-name="dieresis" unicode="&#xa8;" horiz-adv-x="333" 
d="M57 748c22 0 40.5 -7.66699 55.5 -23s22.5 -34 22.5 -56s-7.5 -40.667 -22.5 -56s-33.5 -23 -55.5 -23s-40.5 7.66699 -55.5 23s-22.5 34 -22.5 56s7.5 40.667 22.5 56s33.5 23 55.5 23zM276 748c22 0 40.5 -7.66699 55.5 -23s22.5 -34 22.5 -56s-7.5 -40.667 -22.5 -56
s-33.5 -23 -55.5 -23s-40.5 7.66699 -55.5 23s-22.5 34 -22.5 56s7.5 40.667 22.5 56s33.5 23 55.5 23z" />
    <glyph glyph-name="copyright" unicode="&#xa9;" horiz-adv-x="800" 
d="M50 340c0 101.333 33.167 186.167 99.5 254.5s149.833 102.5 250.5 102.5c101.333 0 185 -34 251 -102s99 -153 99 -255s-32.833 -187 -98.5 -255s-149.5 -102 -251.5 -102c-101.333 0 -185 34 -251 102s-99 153 -99 255zM141 340.001c0 -80 23.667 -148.833 71 -206.5
s110 -86.5 188 -86.5c78.667 0 141.5 28.667 188.5 86s70.5 126.333 70.5 207c0 80 -23.667 148.833 -71 206.5s-110 86.5 -188 86.5s-140.667 -28.833 -188 -86.5s-71 -126.5 -71 -206.5zM553 511.001l-0.00195312 -72h-23c-23.333 56.667 -56.333 85 -99 85
c-26 0 -46.833 -10 -62.5 -30s-25.5 -41 -29.5 -63s-6 -46.333 -6 -73c0 -122.667 31.667 -184 95 -184c26 0 49.167 9 69.5 27s36.5 40 48.5 66h24l-16 -82c-1.33301 -8 -18.166 -16.333 -50.499 -25s-60.5 -13 -84.5 -13c-68 0 -121.5 17.5 -160.5 52.5
s-58.5 85.833 -58.5 152.5c0 64.667 20.833 114 62.5 148s96.834 51 165.501 51c22.667 0 49.167 -3.66699 79.5 -11s45.5 -17 45.5 -29z" />
    <glyph glyph-name="ordfeminine" unicode="&#xaa;" horiz-adv-x="378" 
d="M195 487v29c-13.333 0 -25.333 -3.5 -36 -10.5s-16 -18.167 -16 -33.5c0 -12.667 6.66699 -19 20 -19c21.333 0 32 11.333 32 34zM92 547l90.998 25.0029c7.33301 2 11 4 11 6c0 0.666992 0.166992 4.66699 0.5 12s0.5 14 0.5 20c0 10.667 -2.83301 18 -8.5 22
s-17.167 6 -34.5 6c-23.333 0 -45.666 -10.667 -66.999 -32c-1.33301 -1.33301 -4.33301 -4.5 -9 -9.5s-7.66699 -8.33301 -9 -10s-3.66602 -3.83398 -6.99902 -6.50098s-6.33301 -4.5 -9 -5.5s-5.33398 -1.5 -8.00098 -1.5c-10.667 0 -18.334 5 -23.001 15s-7 20.667 -7 32
c0 15.333 6.83301 28.5 20.5 39.5s31 19 52 24s40.5 8.5 58.5 10.5s34.667 3 50 3c48.667 0 85 -6.83301 109 -20.5s36 -40.834 36 -81.501c0 -12 -0.833008 -30.167 -2.5 -54.5s-2.5 -42.833 -2.5 -55.5c0 -15.333 6 -23 18 -23c2.66699 0 6.33398 0.666992 11.001 2
s8 2 10 2c6 0 9 -3.66699 9 -11c0 -26.667 -15 -46.334 -45 -59.001s-61.333 -19 -94 -19c-23.333 0 -39.666 9.66699 -48.999 29c-40 -19.333 -77.333 -29 -112 -29c-54.667 0 -82 24.667 -82 74c0 25.333 7.5 45.5 22.5 60.5s38.167 26.833 69.5 35.5z" />
    <glyph glyph-name="guillemotleft" unicode="&#xab;" horiz-adv-x="556" 
d="M244 89l-161.001 131.001c-4.66699 4 -11 9 -19 15s-13.333 10.333 -16 13s-4 4.66699 -4 6c0 5.33301 4.5 11.333 13.5 18l46 33c21.667 15.333 42.167 31.333 61.5 48c20 14.667 39.167 30.5 57.5 47.5s31.833 29 40.5 36s16.667 10.5 24 10.5c10.667 0 16 -6 16 -18
s-9.66699 -31.833 -29 -59.5s-38.666 -53 -57.999 -76s-29 -35.5 -29 -37.5c0 -2.66699 9.66699 -15.834 29 -39.501s38.666 -49 57.999 -76s29 -46.5 29 -58.5c0 -6.66699 -1.16699 -11.167 -3.5 -13.5s-7.16602 -3.5 -14.499 -3.5s-21 8 -41 24zM449.999 89.001
l-161.001 131.001c-4.66699 4 -11 9 -19 15s-13.333 10.333 -16 13s-4 4.66699 -4 6c0 5.33301 4.5 11.333 13.5 18l46 33c21.667 15.333 42.167 31.333 61.5 48c20 14.667 39.167 30.5 57.5 47.5s31.833 29 40.5 36s16.667 10.5 24 10.5c10.667 0 16 -6 16 -18
s-9.66699 -31.833 -29 -59.5s-38.666 -53 -57.999 -76s-29 -35.5 -29 -37.5c0 -2.66699 9.66699 -15.834 29 -39.501s38.666 -49 57.999 -76s29 -46.5 29 -58.5c0 -6.66699 -1.16699 -11.167 -3.5 -13.5s-7.16602 -3.5 -14.499 -3.5s-21 8 -41 24z" />
    <glyph glyph-name="logicalnot" unicode="&#xac;" horiz-adv-x="600" 
d="M436 108v192h-392v120h512v-312h-120z" />
    <glyph glyph-name="registered" unicode="&#xae;" horiz-adv-x="800" 
d="M50 340c0 101.333 33 186.166 99 254.499s149.333 102.5 250 102.5c101.333 0 185.166 -34.167 251.499 -102.5s99.5 -153.5 99.5 -255.5s-33.167 -186.833 -99.5 -254.5s-150.166 -101.5 -251.499 -101.5s-184.833 33.833 -250.5 101.5s-98.5 152.834 -98.5 255.501z
M141 340c0 -80 23.667 -148.833 71 -206.5s110 -86.5 188 -86.5c78.667 0 141.5 28.667 188.5 86s70.5 126.333 70.5 207c0 80 -23.667 148.833 -71 206.5s-110 86.5 -188 86.5s-140.667 -28.833 -188 -86.5s-71 -126.5 -71 -206.5zM231 158v20.998
c17.333 0.666992 28.5 2.83398 33.5 6.50098s7.5 12.5 7.5 26.5v273c0 13.333 -2.33301 22 -7 26s-16 6.33301 -34 7v21h209c33.333 0 59.833 -8.5 79.5 -25.5s29.5 -42.167 29.5 -75.5c0 -23.333 -7.16699 -44.166 -21.5 -62.499s-32.5 -30.833 -54.5 -37.5l115 -166v-14
h-100c-8.66699 0 -19.667 12.167 -33 36.5s-26.333 50.833 -39 79.5s-21 45.334 -25 50.001h-20v-116c0 -11.333 2.83301 -18.833 8.5 -22.5s16.5 -5.83398 32.5 -6.50098v-21h-181zM371 511.998v-161h23c32.667 0 49 28 49 84c0 51.333 -15 77 -45 77h-27z" />
    <glyph glyph-name="macron" unicode="&#xaf;" horiz-adv-x="333" 
d="M344 622h-353v90h353v-90z" />
    <glyph glyph-name="degree" unicode="&#xb0;" horiz-adv-x="400" 
d="M200 625c-25.333 0 -46.333 -8.5 -63 -25.5s-25 -37.833 -25 -62.5s8.33301 -45.5 25 -62.5s37.667 -25.5 63 -25.5s46.333 8.5 63 25.5s25 37.833 25 62.5s-8.33301 45.5 -25 62.5s-37.667 25.5 -63 25.5zM200 680c40 0 73.833 -13.833 101.5 -41.5
s41.5 -61.5 41.5 -101.5s-13.833 -73.833 -41.5 -101.5s-61.5 -41.5 -101.5 -41.5s-73.833 13.833 -101.5 41.5s-41.5 61.5 -41.5 101.5s13.833 73.833 41.5 101.5s61.5 41.5 101.5 41.5z" />
    <glyph glyph-name="plusminus" unicode="&#xb1;" horiz-adv-x="600" 
d="M240 392v121h120v-121h196v-120h-196v-110h-120v110h-196v120h196zM44 0v120h512v-120h-512z" />
    <glyph glyph-name="twosuperior" unicode="&#xb2;" horiz-adv-x="388" 
d="M12 324l81.9951 71.999c64 57.333 96 103.333 96 138c0 32.667 -23 49 -69 49c-20.667 0 -39.834 -5.83301 -57.501 -17.5s-27.167 -17.5 -28.5 -17.5c-9.33301 0 -14 6.66699 -14 20c0 35.333 18.167 62.833 54.5 82.5s74.5 29.5 114.5 29.5
c39.333 0 72.5 -8.33301 99.5 -25s40.5 -41.667 40.5 -75c0 -40 -15.5 -77.833 -46.5 -113.5s-67.5 -62.5 -109.5 -80.5c10.667 -3.33301 24 -5 40 -5c32.667 0 62.834 3.5 90.501 10.5s48.834 14.167 63.501 21.5s22.334 11 23.001 11c10 0 15 -10.333 15 -31
c0 -12.667 -3 -35.334 -9 -68.001c-0.666992 -1.33301 -1.5 -4.5 -2.5 -9.5s-1.66699 -8.66699 -2 -11s-1.16602 -5.66602 -2.49902 -9.99902s-2.83301 -7.66602 -4.5 -9.99902s-3.66699 -4.83301 -6 -7.5s-5 -4.5 -8 -5.5s-6.5 -1.5 -10.5 -1.5
c-19.333 0 -48.666 0.333008 -87.999 1s-68.666 1 -87.999 1s-48.5 -0.333008 -87.5 -1s-68.167 -1 -87.5 -1c-14.667 0 -22 6 -22 18c0 9.33301 8 21.333 24 36z" />
    <glyph glyph-name="threesuperior" unicode="&#xb3;" horiz-adv-x="388" 
d="M392 402c0 -46 -18.1699 -80.334 -54.5029 -103.001s-80.833 -34 -133.5 -34c-24 0 -50.333 2.66699 -79 8s-56.167 15.5 -82.5 30.5s-39.5 33.5 -39.5 55.5c0 12.667 1.5 21.334 4.5 26.001s9.16699 7 18.5 7c1.33301 0 15.5 -6 42.5 -18s55.5 -18 85.5 -18
c25.333 0 47.166 5.33301 65.499 16s27.5 27 27.5 49c0 15.333 -4 27.5 -12 36.5s-16.667 14.5 -26 16.5s-18 4.5 -26 7.5s-12 7.5 -12 13.5c0 4.66699 4.83301 8.83398 14.5 12.501s19.167 8.66699 28.5 15s14 15.833 14 28.5c0 16.667 -7.16699 29.834 -21.5 39.501
s-31.166 14.5 -50.499 14.5c-17.333 0 -31.666 -3 -42.999 -9s-19.166 -12.833 -23.499 -20.5s-9.16602 -14.5 -14.499 -20.5s-11.333 -9 -18 -9c-11.333 0 -21 7.5 -29 22.5s-12 29.5 -12 43.5c0 15.333 7.66699 28.166 23 38.499s35.666 17.333 60.999 21s45.333 6 60 7
s29.334 1.5 44.001 1.5c50.667 0 91.667 -10.833 123 -32.5s47 -48.834 47 -81.501c0 -12 -4.66699 -23.833 -14 -35.5s-21.333 -18.5 -36 -20.5v-2c18.667 -8 34.667 -21.333 48 -40s20 -40.667 20 -66z" />
    <glyph glyph-name="acute" unicode="&#xb4;" horiz-adv-x="333" 
d="M82 586l85.001 114.002l12 16c6 8 10.167 13.667 12.5 17s6.5 8.16602 12.5 14.499s11 11 15 14s9.16699 6.5 15.5 10.5s12.833 6.66699 19.5 8s13.667 2 21 2c16 0 29.667 -4.83301 41 -14.5s17 -23.5 17 -41.5c0 -4 -0.166992 -7.66699 -0.5 -11
s-1.33301 -6.66602 -3 -9.99902s-2.83398 -6 -3.50098 -8s-2.5 -4.5 -5.5 -7.5l-6.5 -6.5c-1.33301 -1.33301 -4 -3.5 -8 -6.5s-6.66699 -4.83301 -8 -5.5s-4.83301 -2.83398 -10.5 -6.50098s-9.16699 -5.83398 -10.5 -6.50098l-129 -72h-66z" />
    <glyph glyph-name="mu" unicode="&#xb5;" horiz-adv-x="722" 
d="M416 176l0.000976562 212.004c0 4 -0.5 7.66699 -1.5 11s-2 6 -3 8s-2.66699 4 -5 6s-4 3.33301 -5 4s-2.83301 1.66699 -5.5 3l-5 3c-2 1.33301 -5 3 -9 5l-9 4.5c-2 1 -4.33301 2.66699 -7 5s-4.5 4.83301 -5.5 7.5s-2 6.16699 -3 10.5s-1.5 9.5 -1.5 15.5
c0 30 10 45 30 45c12 0 29.667 -0.5 53 -1.5s40.666 -1.5 51.999 -1.5c12 0 29.5 0.5 52.5 1.5s40.5 1.5 52.5 1.5c27.333 0 41 -16 41 -48c0 -36 -0.5 -81.833 -1.5 -137.5s-1.5 -100.834 -1.5 -135.501c0 -34 12 -57 36 -69l13 -6.5c6 -3 10.333 -5.33301 13 -7
s5.33398 -4.33398 8.00098 -8.00098s4 -7.83398 4 -12.501c0 -24 -14.333 -40.667 -43 -50l-198 -69c-10.667 -4 -22 -6 -34 -6c-10 0 -15 11.667 -15 35v59c-40 -35.333 -80.667 -56.666 -122 -63.999v-105c0 -48 -2.16699 -79 -6.5 -93s-13.5 -21 -27.5 -21
c-12 0 -30 0.5 -54 1.5s-42 1.5 -54 1.5s-30 -0.5 -54 -1.5s-42 -1.5 -54 -1.5c-14 0 -23.667 4.16699 -29 12.5s-8 22.5 -8 42.5c0 10 1.83301 18 5.5 24s7 9.83301 10 11.5s9.83301 4.5 20.5 8.5c14.667 6 22 81 22 225v234c0 48 -7 77 -21 87l-16.5 10.5
c-7 4.33301 -11.833 7.5 -14.5 9.5s-5.33398 5.66699 -8.00098 11s-4 12 -4 20c0 17.333 4.66699 28.666 14 33.999s23.666 8 42.999 8c11.333 0 28.333 -0.5 51 -1.5s39.667 -1.5 51 -1.5s28.333 0.5 51 1.5s39.667 1.5 51 1.5c20 0 30 -12.667 30 -38
c0 -18.667 -1 -46.667 -3 -84s-3 -65.333 -3 -84c0 -66.667 5.33301 -113.167 16 -139.5s33.334 -39.5 68.001 -39.5c17.333 0 29 3.66699 35 11s9 18.666 9 33.999z" />
    <glyph glyph-name="paragraph" unicode="&#xb6;" horiz-adv-x="620" 
d="M335 650v-798.997h-120v418c-50 0 -88.333 20.5 -115 61.5s-40 91.5 -40 151.5c0 72 16.667 123 50 153s86.333 45 159 45h316v-27c-3.33301 -0.666992 -10.333 -1.83398 -21 -3.50098s-17.667 -3 -21 -4s-8 -2.83301 -14 -5.5s-10 -6.33398 -12 -11.001
s-3 -10.334 -3 -17.001v-761h-120v799h-59z" />
    <glyph glyph-name="periodcentered" unicode="&#xb7;" horiz-adv-x="324" 
d="M162 361c28.667 0 53.334 -10.333 74.001 -31s31 -45.334 31 -74.001s-10.333 -53.334 -31 -74.001s-45.334 -31 -74.001 -31s-53.334 10.333 -74.001 31s-31 45.334 -31 74.001s10.333 53.334 31 74.001s45.334 31 74.001 31z" />
    <glyph glyph-name="cedilla" unicode="&#xb8;" horiz-adv-x="333" 
d="M87 -98l45.999 98h46l-27 -61c12 3.33301 25.667 5 41 5c24 0 44.5 -6.16699 61.5 -18.5s25.5 -30.166 25.5 -53.499c0 -18.667 -5 -34.5 -15 -47.5s-23.167 -22.667 -39.5 -29s-32.5 -10.833 -48.5 -13.5s-32.667 -4 -50 -4c-30.667 0 -61 6 -91 18l17 44
c25.333 -9.33301 47.333 -14 66 -14c12.667 0 23.834 3.16699 33.501 9.5s14.5 15.5 14.5 27.5c0 9.33301 -3.5 17.666 -10.5 24.999s-15.167 11 -24.5 11c-12 0 -21.667 -2 -29 -6z" />
    <glyph glyph-name="onesuperior" unicode="&#xb9;" horiz-adv-x="388" 
d="M267 624l0.00195312 -250.006c0 -7.33301 2.83301 -13.166 8.5 -17.499s11.167 -7.16602 16.5 -8.49902s13.666 -3 24.999 -5c27.333 -3.33301 43.333 -7.66602 48 -12.999c4 -4.66699 6 -11.667 6 -21c0 -26 -6.66699 -39 -20 -39c-16.667 0 -41 0.333008 -73 1
s-56 1 -72 1s-40 -0.333008 -72 -1s-56 -1 -72 -1c-26.667 0 -40 11.333 -40 34c0 14.667 3.66699 24.667 11 30s22.333 8.33301 45 9c22 1.33301 35.833 10 41.5 26s8.5 45.333 8.5 88c0 56 -2.66699 91 -8 105c-3.33301 10 -19.333 15.667 -48 17
c-8.66699 0.666992 -15 1.33398 -19 2.00098s-8 3.83398 -12 9.50098s-6 14.167 -6 25.5c0 10.667 5.5 18.834 16.5 24.501s30.833 12.167 59.5 19.5c55.333 13.333 93.666 20 114.999 20c15.333 0 26 -3.5 32 -10.5s9 -22.167 9 -45.5z" />
    <glyph glyph-name="ordmasculine" unicode="&#xba;" horiz-adv-x="367" 
d="M-1 528c0 52 17 93.166 51 123.499s79.333 45.5 136 45.5c54.667 0 98.667 -13.333 132 -40s50 -65 50 -115c0 -51.333 -17.833 -91.666 -53.5 -120.999s-81.5 -44 -137.5 -44c-54.667 0 -98 13 -130 39s-48 63.333 -48 112zM175 636.999c-17.333 0 -26 -24.333 -26 -73
c0 -84.667 14 -127 42 -127c18 0 27 24.333 27 73c0 84.667 -14.333 127 -43 127z" />
    <glyph glyph-name="guillemotright" unicode="&#xbb;" horiz-adv-x="556" 
d="M312 423l161.001 -131.001c4.66699 -4 11 -9 19 -15s13.333 -10.333 16 -13s4 -4.66699 4 -6c0 -5.33301 -4.5 -11.333 -13.5 -18l-46 -33c-21.667 -15.333 -42.167 -31.333 -61.5 -48c-20 -14.667 -39.167 -30.5 -57.5 -47.5s-31.833 -29 -40.5 -36
s-16.667 -10.5 -24 -10.5c-10.667 0 -16 6 -16 18s9.66699 31.833 29 59.5s38.666 53 57.999 76s29 35.5 29 37.5c0 2.66699 -9.66699 15.834 -29 39.501s-38.666 49 -57.999 76s-29 46.5 -29 58.5c0 6.66699 1.16699 11.167 3.5 13.5s7.16602 3.5 14.499 3.5s21 -8 41 -24z
M106.001 422.999l161.001 -131.001c4.66699 -4 11 -9 19 -15s13.333 -10.333 16 -13s4 -4.66699 4 -6c0 -5.33301 -4.5 -11.333 -13.5 -18l-46 -33c-21.667 -15.333 -42.167 -31.333 -61.5 -48c-20 -14.667 -39.167 -30.5 -57.5 -47.5s-31.833 -29 -40.5 -36
s-16.667 -10.5 -24 -10.5c-10.667 0 -16 6 -16 18s9.66699 31.833 29 59.5s38.666 53 57.999 76s29 35.5 29 37.5c0 2.66699 -9.66699 15.834 -29 39.501s-38.666 49 -57.999 76s-29 46.5 -29 58.5c0 6.66699 1.16699 11.167 3.5 13.5s7.16602 3.5 14.499 3.5s21 -8 41 -24z
" />
    <glyph glyph-name="onequarter" unicode="&#xbc;" horiz-adv-x="972" 
d="M638 159h113v96zM386 -12h-102l399 692h102zM288 624l0.00195312 -250.006c0 -7.33301 2.83301 -13.166 8.5 -17.499s11.167 -7.16602 16.5 -8.49902s13.666 -3 24.999 -5c27.333 -3.33301 43.333 -7.66602 48 -12.999c4 -4.66699 6 -11.667 6 -21
c0 -26 -6.66699 -39 -20 -39c-16.667 0 -41 0.333008 -73 1s-56 1 -72 1s-40 -0.333008 -72 -1s-56 -1 -72 -1c-26.667 0 -40 11.333 -40 34c0 14.667 3.66699 24.667 11 30s22.333 8.33301 45 9c22 1.33301 35.833 10 41.5 26s8.5 45.333 8.5 88c0 56 -2.66699 91 -8 105
c-3.33301 10 -19.333 15.667 -48 17c-8.66699 0.666992 -15 1.33398 -19 2.00098s-8 3.83398 -12 9.50098s-6 14.167 -6 25.5c0 10.667 5.5 18.834 16.5 24.501s30.833 12.167 59.5 19.5c55.333 13.333 93.666 20 114.999 20c15.333 0 26 -3.5 32 -10.5s9 -22.167 9 -45.5z
M869.002 394.994l0.00292969 -235.997h69c8.66699 0 13 -4.66699 13 -14c0 -23.333 -2.66699 -51 -8 -83c-0.666992 -6.66699 -1.83398 -10.834 -3.50098 -12.501s-5.83398 -2.5 -12.501 -2.5h-60v-48c0 -10.667 -1.33301 -17.834 -4 -21.501
s-9.33398 -6.83398 -20.001 -9.50098l-92 -25v104h-186c-14 0 -21 16 -21 48c0 44 4.66699 70 14 78l235 194c32.667 27.333 53 41 61 41c10 0 15 -4.33301 15 -13z" />
    <glyph glyph-name="onehalf" unicode="&#xbd;" horiz-adv-x="972" 
d="M350 -12h-102l399 692h102zM288 624l0.00195312 -250.006c0 -7.33301 2.83301 -13.166 8.5 -17.499s11.167 -7.16602 16.5 -8.49902s13.666 -3 24.999 -5c27.333 -3.33301 43.333 -7.66602 48 -12.999c4 -4.66699 6 -11.667 6 -21c0 -26 -6.66699 -39 -20 -39
c-16.667 0 -41 0.333008 -73 1s-56 1 -72 1s-40 -0.333008 -72 -1s-56 -1 -72 -1c-26.667 0 -40 11.333 -40 34c0 14.667 3.66699 24.667 11 30s22.333 8.33301 45 9c22 1.33301 35.833 10 41.5 26s8.5 45.333 8.5 88c0 56 -2.66699 91 -8 105
c-3.33301 10 -19.333 15.667 -48 17c-8.66699 0.666992 -15 1.33398 -19 2.00098s-8 3.83398 -12 9.50098s-6 14.167 -6 25.5c0 10.667 5.5 18.834 16.5 24.501s30.833 12.167 59.5 19.5c55.333 13.333 93.666 20 114.999 20c15.333 0 26 -3.5 32 -10.5s9 -22.167 9 -45.5z
M563.002 51.9941l80.999 71.999c64.667 56.667 97 102.667 97 138c0 17.333 -6.66699 29.833 -20 37.5s-29.666 11.5 -48.999 11.5c-20.667 0 -39.834 -5.83301 -57.501 -17.5s-27.167 -17.5 -28.5 -17.5c-9.33301 0 -14 6.66699 -14 20c0 35.333 18.167 62.833 54.5 82.5
s74.5 29.5 114.5 29.5c39.333 0 72.5 -8.33301 99.5 -25s40.5 -41.667 40.5 -75c0 -40 -15.667 -77.833 -47 -113.5s-68 -62.167 -110 -79.5v-2c11.333 -2.66699 25 -4 41 -4c32 0 61.833 3.5 89.5 10.5s48.834 14.167 63.501 21.5s22.334 11 23.001 11
c10.667 0 16 -10.333 16 -31c0 -9.33301 -3.33301 -32 -10 -68c0 -1.33301 -0.333008 -3.66602 -1 -6.99902l-1.5 -7.5c-0.333008 -1.66699 -0.833008 -4 -1.5 -7s-1.33398 -5.5 -2.00098 -7.5s-1.5 -4.33301 -2.5 -7s-2 -4.66699 -3 -6s-2.33301 -3 -4 -5
s-3.5 -3.5 -5.5 -4.5s-4.16699 -1.83301 -6.5 -2.5s-4.83301 -1 -7.5 -1c-20 0 -49.333 0.333008 -88 1s-68 1 -88 1c-19.333 0 -48.5 -0.333008 -87.5 -1s-68.167 -1 -87.5 -1c-15.333 0 -23 6 -23 18c0 8.66699 8.33301 20.667 25 36z" />
    <glyph glyph-name="threequarters" unicode="&#xbe;" horiz-adv-x="972" 
d="M638 159h112v96zM868 395l0.00292969 -235.997h69c8.66699 0 13 -4.66699 13 -14c0 -23.333 -2.66699 -51 -8 -83c-0.666992 -6.66699 -1.83398 -10.834 -3.50098 -12.501s-5.83398 -2.5 -12.501 -2.5h-60v-48c0 -10.667 -1.33301 -17.834 -4 -21.501
s-9.33398 -6.83398 -20.001 -9.50098l-92 -25v104h-186c-14 0 -21 16 -21 48c0 44 4.66699 70 14 78l235 194c32.667 27.333 53 41 61 41c10 0 15 -4.33301 15 -13zM375.003 -11.9971h-102l399 692h102zM411.003 402.003c0 -46 -18.1699 -80.334 -54.5029 -103.001
s-80.833 -34 -133.5 -34c-24 0 -50.333 2.66699 -79 8s-56.167 15.5 -82.5 30.5s-39.5 33.5 -39.5 55.5c0 12.667 1.5 21.334 4.5 26.001s9.16699 7 18.5 7c1.33301 0 15.5 -6 42.5 -18s55.5 -18 85.5 -18c25.333 0 47.166 5.33301 65.499 16s27.5 27 27.5 49
c0 15.333 -4 27.5 -12 36.5s-16.667 14.5 -26 16.5s-18 4.5 -26 7.5s-12 7.5 -12 13.5c0 4.66699 4.66699 8.83398 14 12.501s18.833 8.66699 28.5 15s14.5 15.833 14.5 28.5c0 16.667 -7.16699 29.834 -21.5 39.501s-31.166 14.5 -50.499 14.5
c-17.333 0 -31.666 -3 -42.999 -9s-19.166 -12.833 -23.499 -20.5s-9.16602 -14.5 -14.499 -20.5s-11.333 -9 -18 -9c-11.333 0 -21 7.5 -29 22.5s-12 29.5 -12 43.5c0 15.333 7.66699 28.166 23 38.499s35.666 17.333 60.999 21s45.333 6 60 7s29.334 1.5 44.001 1.5
c50.667 0 91.667 -10.833 123 -32.5s47 -48.834 47 -81.501c0 -12 -4.66699 -23.833 -14 -35.5s-21.333 -18.5 -36 -20.5v-2c18.667 -8 34.667 -21.333 48 -40s20 -40.667 20 -66z" />
    <glyph glyph-name="questiondown" unicode="&#xbf;" horiz-adv-x="426" 
d="M253 287c16 0 28 -9.83301 36 -29.5s12 -39.167 12 -58.5c0 -24 -7.83301 -58.167 -23.5 -102.5s-23.5 -72.833 -23.5 -85.5c0 -27.333 17.667 -41 53 -41c6 0 15.167 1.33301 27.5 4s21.833 4 28.5 4c19.333 0 29 -13 29 -39c0 -30 -22.167 -54.667 -66.5 -74
s-83.833 -29 -118.5 -29c-50 0 -90 11.833 -120 35.5s-45 60.167 -45 109.5c0 29.333 4.5 55.166 13.5 77.499s20.667 40.666 35 54.999s29 27.333 44 39s30 25.5 45 41.5s26.167 33.333 33.5 52c1.33301 2.66699 3.16602 7.33398 5.49902 14.001s4 10.834 5 12.501
s2.83301 4.16699 5.5 7.5s5.83398 5.33301 9.50098 6s8.5 1 14.5 1zM345 428c0 -31.333 -8.66699 -55 -26 -71s-42 -24 -74 -24s-56.667 8.16699 -74 24.5s-26 39.833 -26 70.5c0 31.333 8.66699 55 26 71s42 24 74 24s56.667 -8.16699 74 -24.5s26 -39.833 26 -70.5z" />
    <glyph glyph-name="Agrave" unicode="&#xc0;" horiz-adv-x="759" 
d="M255 289h114c-6 26.667 -14.5 53.167 -25.5 79.5s-21.5 39.5 -31.5 39.5s-20.5 -13.167 -31.5 -39.5s-19.5 -52.833 -25.5 -79.5zM78 168l189.999 457.999c14 34 26.333 54.333 37 61s35 10 73 10s62.333 -3.33301 73 -10s23 -27 37 -61l205 -464
c4.66699 -10.667 12.667 -22.667 24 -36s23.333 -23.666 36 -30.999c0.666992 -0.666992 2.16699 -1.5 4.5 -2.5s3.83301 -1.83301 4.5 -2.5s1.83398 -1.5 3.50098 -2.5s2.83398 -1.83301 3.50098 -2.5s1.66699 -1.5 3 -2.5s2.16602 -2.16699 2.49902 -3.5
s0.833008 -2.66602 1.5 -3.99902s1.16699 -3 1.5 -5l1 -6c0.333008 -2 0.5 -4.33301 0.5 -7c0 -22.667 -4.83301 -38.334 -14.5 -47.001s-28.167 -13 -55.5 -13c-9.33301 0 -30.5 0.5 -63.5 1.5s-61.5 1.5 -85.5 1.5c-23.333 0 -51 -0.5 -83 -1.5s-54 -1.5 -66 -1.5
c-14 0 -24.833 5 -32.5 15s-11.5 21.667 -11.5 35c0 9.33301 1 16.833 3 22.5s4.16699 9.83398 6.5 12.501s7.5 7 15.5 13c1.33301 0.666992 3.5 2.16699 6.5 4.5s4.83301 4 5.5 5s2.16699 2.5 4.5 4.5s3.83301 3.33301 4.5 4s1.83398 2 3.50098 4s2.66699 3.83301 3 5.5
s0.833008 3.5 1.5 5.5s1.16699 4.16699 1.5 6.5s0.5 4.83301 0.5 7.5c0 8 -2.66699 15.167 -8 21.5s-12.333 9.5 -21 9.5h-154c-22 0 -33 -15 -33 -45c0 -10 2.33301 -17.167 7 -21.5s14 -8.16602 28 -11.499c14 -4 22.667 -8.33301 26 -13s5 -16.334 5 -35.001
c0 -33.333 -19.667 -50 -59 -50c-10.667 0 -26.667 0.5 -48 1.5s-37.333 1.5 -48 1.5c-11.333 0 -27.666 -0.5 -48.999 -1.5s-37.333 -1.5 -48 -1.5c-16.667 0 -27.834 3.16699 -33.501 9.5s-8.5 18.5 -8.5 36.5c0 27.333 10 44.666 30 51.999c18 6 31.667 14.167 41 24.5
s18.666 26.5 27.999 48.5zM463.999 729.999h-66l-129 72c-2 1.33301 -5.16699 3.33301 -9.5 6l-9 5.5c-1.66699 1 -4.33398 2.83301 -8.00098 5.5s-6.16699 4.66699 -7.5 6s-3.33301 3.16602 -6 5.49902s-4.5 4.33301 -5.5 6s-2.5 3.83398 -4.5 6.50098
s-3.16699 5.33398 -3.5 8.00098s-0.833008 5.66699 -1.5 9s-1 6.66602 -1 9.99902c0 18 5.66699 31.833 17 41.5s25 14.5 41 14.5c16.667 0 32.334 -5 47.001 -15s35 -32.333 61 -67z" />
    <glyph glyph-name="Aacute" unicode="&#xc1;" horiz-adv-x="759" 
d="M255 289h114c-6 26.667 -14.5 53.167 -25.5 79.5s-21.5 39.5 -31.5 39.5s-20.5 -13.167 -31.5 -39.5s-19.5 -52.833 -25.5 -79.5zM78 168l189.999 457.999c14 34 26.333 54.333 37 61s35 10 73 10s62.333 -3.33301 73 -10s23 -27 37 -61l205 -464
c4.66699 -10.667 12.667 -22.667 24 -36s23.333 -23.666 36 -30.999c0.666992 -0.666992 2.16699 -1.5 4.5 -2.5s3.83301 -1.83301 4.5 -2.5s1.83398 -1.5 3.50098 -2.5s2.83398 -1.83301 3.50098 -2.5s1.66699 -1.5 3 -2.5s2.16602 -2.16699 2.49902 -3.5
s0.833008 -2.66602 1.5 -3.99902s1.16699 -3 1.5 -5l1 -6c0.333008 -2 0.5 -4.33301 0.5 -7c0 -22.667 -4.83301 -38.334 -14.5 -47.001s-28.167 -13 -55.5 -13c-9.33301 0 -30.5 0.5 -63.5 1.5s-61.5 1.5 -85.5 1.5c-23.333 0 -51 -0.5 -83 -1.5s-54 -1.5 -66 -1.5
c-14 0 -24.833 5 -32.5 15s-11.5 21.667 -11.5 35c0 9.33301 1 16.833 3 22.5s4.16699 9.83398 6.5 12.501s7.5 7 15.5 13c1.33301 0.666992 3.5 2.16699 6.5 4.5s4.83301 4 5.5 5s2.16699 2.5 4.5 4.5s3.83301 3.33301 4.5 4s1.83398 2 3.50098 4s2.66699 3.83301 3 5.5
s0.833008 3.5 1.5 5.5s1.16699 4.16699 1.5 6.5s0.5 4.83301 0.5 7.5c0 8 -2.66699 15.167 -8 21.5s-12.333 9.5 -21 9.5h-154c-22 0 -33 -15 -33 -45c0 -10 2.33301 -17.167 7 -21.5s14 -8.16602 28 -11.499c14 -4 22.667 -8.33301 26 -13s5 -16.334 5 -35.001
c0 -33.333 -19.667 -50 -59 -50c-10.667 0 -26.667 0.5 -48 1.5s-37.333 1.5 -48 1.5c-11.333 0 -27.666 -0.5 -48.999 -1.5s-37.333 -1.5 -48 -1.5c-16.667 0 -27.834 3.16699 -33.501 9.5s-8.5 18.5 -8.5 36.5c0 27.333 10 44.666 30 51.999c18 6 31.667 14.167 41 24.5
s18.666 26.5 27.999 48.5zM294.999 729.999l85.001 114.002l12 16c6 8 10.167 13.667 12.5 17s6.5 8.16602 12.5 14.499s11 11 15 14s9.16699 6.5 15.5 10.5s12.833 6.66699 19.5 8s13.667 2 21 2c16 0 29.667 -4.83301 41 -14.5s17 -23.5 17 -41.5
c0 -4 -0.166992 -7.66699 -0.5 -11s-1.33301 -6.66602 -3 -9.99902s-2.83398 -6 -3.50098 -8s-2.5 -4.5 -5.5 -7.5l-6.5 -6.5c-1.33301 -1.33301 -4 -3.5 -8 -6.5s-6.66699 -4.83301 -8 -5.5s-4.83301 -2.83398 -10.5 -6.50098s-9.16699 -5.83398 -10.5 -6.50098l-129 -72
h-66z" />
    <glyph glyph-name="Acircumflex" unicode="&#xc2;" horiz-adv-x="759" 
d="M255 289h114c-6 26.667 -14.5 53.167 -25.5 79.5s-21.5 39.5 -31.5 39.5s-20.5 -13.167 -31.5 -39.5s-19.5 -52.833 -25.5 -79.5zM78 168l189.999 457.999c14 34 26.333 54.333 37 61s35 10 73 10s62.333 -3.33301 73 -10s23 -27 37 -61l205 -464
c4.66699 -10.667 12.667 -22.667 24 -36s23.333 -23.666 36 -30.999c0.666992 -0.666992 2.16699 -1.5 4.5 -2.5s3.83301 -1.83301 4.5 -2.5s1.83398 -1.5 3.50098 -2.5s2.83398 -1.83301 3.50098 -2.5s1.66699 -1.5 3 -2.5s2.16602 -2.16699 2.49902 -3.5
s0.833008 -2.66602 1.5 -3.99902s1.16699 -3 1.5 -5l1 -6c0.333008 -2 0.5 -4.33301 0.5 -7c0 -22.667 -4.83301 -38.334 -14.5 -47.001s-28.167 -13 -55.5 -13c-9.33301 0 -30.5 0.5 -63.5 1.5s-61.5 1.5 -85.5 1.5c-23.333 0 -51 -0.5 -83 -1.5s-54 -1.5 -66 -1.5
c-14 0 -24.833 5 -32.5 15s-11.5 21.667 -11.5 35c0 9.33301 1 16.833 3 22.5s4.16699 9.83398 6.5 12.501s7.5 7 15.5 13c1.33301 0.666992 3.5 2.16699 6.5 4.5s4.83301 4 5.5 5s2.16699 2.5 4.5 4.5s3.83301 3.33301 4.5 4s1.83398 2 3.50098 4s2.66699 3.83301 3 5.5
s0.833008 3.5 1.5 5.5s1.16699 4.16699 1.5 6.5s0.5 4.83301 0.5 7.5c0 8 -2.66699 15.167 -8 21.5s-12.333 9.5 -21 9.5h-154c-22 0 -33 -15 -33 -45c0 -10 2.33301 -17.167 7 -21.5s14 -8.16602 28 -11.499c14 -4 22.667 -8.33301 26 -13s5 -16.334 5 -35.001
c0 -33.333 -19.667 -50 -59 -50c-10.667 0 -26.667 0.5 -48 1.5s-37.333 1.5 -48 1.5c-11.333 0 -27.666 -0.5 -48.999 -1.5s-37.333 -1.5 -48 -1.5c-16.667 0 -27.834 3.16699 -33.501 9.5s-8.5 18.5 -8.5 36.5c0 27.333 10 44.666 30 51.999c18 6 31.667 14.167 41 24.5
s18.666 26.5 27.999 48.5zM379.999 819.999l-107 -90h-78l122 180h125l123 -180h-78z" />
    <glyph glyph-name="Atilde" unicode="&#xc3;" horiz-adv-x="759" 
d="M255 289h114c-6 26.667 -14.5 53.167 -25.5 79.5s-21.5 39.5 -31.5 39.5s-20.5 -13.167 -31.5 -39.5s-19.5 -52.833 -25.5 -79.5zM78 168l189.999 457.999c14 34 26.333 54.333 37 61s35 10 73 10s62.333 -3.33301 73 -10s23 -27 37 -61l205 -464
c4.66699 -10.667 12.667 -22.667 24 -36s23.333 -23.666 36 -30.999c0.666992 -0.666992 2.16699 -1.5 4.5 -2.5s3.83301 -1.83301 4.5 -2.5s1.83398 -1.5 3.50098 -2.5s2.83398 -1.83301 3.50098 -2.5s1.66699 -1.5 3 -2.5s2.16602 -2.16699 2.49902 -3.5
s0.833008 -2.66602 1.5 -3.99902s1.16699 -3 1.5 -5l1 -6c0.333008 -2 0.5 -4.33301 0.5 -7c0 -22.667 -4.83301 -38.334 -14.5 -47.001s-28.167 -13 -55.5 -13c-9.33301 0 -30.5 0.5 -63.5 1.5s-61.5 1.5 -85.5 1.5c-23.333 0 -51 -0.5 -83 -1.5s-54 -1.5 -66 -1.5
c-14 0 -24.833 5 -32.5 15s-11.5 21.667 -11.5 35c0 9.33301 1 16.833 3 22.5s4.16699 9.83398 6.5 12.501s7.5 7 15.5 13c1.33301 0.666992 3.5 2.16699 6.5 4.5s4.83301 4 5.5 5s2.16699 2.5 4.5 4.5s3.83301 3.33301 4.5 4s1.83398 2 3.50098 4s2.66699 3.83301 3 5.5
s0.833008 3.5 1.5 5.5s1.16699 4.16699 1.5 6.5s0.5 4.83301 0.5 7.5c0 8 -2.66699 15.167 -8 21.5s-12.333 9.5 -21 9.5h-154c-22 0 -33 -15 -33 -45c0 -10 2.33301 -17.167 7 -21.5s14 -8.16602 28 -11.499c14 -4 22.667 -8.33301 26 -13s5 -16.334 5 -35.001
c0 -33.333 -19.667 -50 -59 -50c-10.667 0 -26.667 0.5 -48 1.5s-37.333 1.5 -48 1.5c-11.333 0 -27.666 -0.5 -48.999 -1.5s-37.333 -1.5 -48 -1.5c-16.667 0 -27.834 3.16699 -33.501 9.5s-8.5 18.5 -8.5 36.5c0 27.333 10 44.666 30 51.999c18 6 31.667 14.167 41 24.5
s18.666 26.5 27.999 48.5zM523.999 890.999h55.001c-20.667 -97.333 -62.667 -146 -126 -146c-28.667 0 -61.667 9 -99 27c-38.667 17.333 -63 26 -73 26c-12.667 0 -23.334 -4.83301 -32.001 -14.5s-13.667 -21.167 -15 -34.5h-52c12 97.333 56.333 146 133 146
c20 0 48.667 -8.66699 86 -26c40 -18.667 65 -28 75 -28c24 0 40 16.667 48 50z" />
    <glyph glyph-name="Adieresis" unicode="&#xc4;" horiz-adv-x="759" 
d="M255 289h114c-6 26.667 -14.5 53.167 -25.5 79.5s-21.5 39.5 -31.5 39.5s-20.5 -13.167 -31.5 -39.5s-19.5 -52.833 -25.5 -79.5zM78 168l189.999 457.999c14 34 26.333 54.333 37 61s35 10 73 10s62.333 -3.33301 73 -10s23 -27 37 -61l205 -464
c4.66699 -10.667 12.667 -22.667 24 -36s23.333 -23.666 36 -30.999c0.666992 -0.666992 2.16699 -1.5 4.5 -2.5s3.83301 -1.83301 4.5 -2.5s1.83398 -1.5 3.50098 -2.5s2.83398 -1.83301 3.50098 -2.5s1.66699 -1.5 3 -2.5s2.16602 -2.16699 2.49902 -3.5
s0.833008 -2.66602 1.5 -3.99902s1.16699 -3 1.5 -5l1 -6c0.333008 -2 0.5 -4.33301 0.5 -7c0 -22.667 -4.83301 -38.334 -14.5 -47.001s-28.167 -13 -55.5 -13c-9.33301 0 -30.5 0.5 -63.5 1.5s-61.5 1.5 -85.5 1.5c-23.333 0 -51 -0.5 -83 -1.5s-54 -1.5 -66 -1.5
c-14 0 -24.833 5 -32.5 15s-11.5 21.667 -11.5 35c0 9.33301 1 16.833 3 22.5s4.16699 9.83398 6.5 12.501s7.5 7 15.5 13c1.33301 0.666992 3.5 2.16699 6.5 4.5s4.83301 4 5.5 5s2.16699 2.5 4.5 4.5s3.83301 3.33301 4.5 4s1.83398 2 3.50098 4s2.66699 3.83301 3 5.5
s0.833008 3.5 1.5 5.5s1.16699 4.16699 1.5 6.5s0.5 4.83301 0.5 7.5c0 8 -2.66699 15.167 -8 21.5s-12.333 9.5 -21 9.5h-154c-22 0 -33 -15 -33 -45c0 -10 2.33301 -17.167 7 -21.5s14 -8.16602 28 -11.499c14 -4 22.667 -8.33301 26 -13s5 -16.334 5 -35.001
c0 -33.333 -19.667 -50 -59 -50c-10.667 0 -26.667 0.5 -48 1.5s-37.333 1.5 -48 1.5c-11.333 0 -27.666 -0.5 -48.999 -1.5s-37.333 -1.5 -48 -1.5c-16.667 0 -27.834 3.16699 -33.501 9.5s-8.5 18.5 -8.5 36.5c0 27.333 10 44.666 30 51.999c18 6 31.667 14.167 41 24.5
s18.666 26.5 27.999 48.5zM269.999 891.999c22 0 40.5 -7.66699 55.5 -23s22.5 -34 22.5 -56s-7.5 -40.667 -22.5 -56s-33.5 -23 -55.5 -23s-40.5 7.66699 -55.5 23s-22.5 34 -22.5 56s7.5 40.667 22.5 56s33.5 23 55.5 23zM488.999 891.999c22 0 40.5 -7.66699 55.5 -23
s22.5 -34 22.5 -56s-7.5 -40.667 -22.5 -56s-33.5 -23 -55.5 -23s-40.5 7.66699 -55.5 23s-22.5 34 -22.5 56s7.5 40.667 22.5 56s33.5 23 55.5 23z" />
    <glyph glyph-name="Aring" unicode="&#xc5;" horiz-adv-x="759" 
d="M255 289h114c-6 26.667 -14.5 53.167 -25.5 79.5s-21.5 39.5 -31.5 39.5s-20.5 -13.167 -31.5 -39.5s-19.5 -52.833 -25.5 -79.5zM78 168l189.999 457.999c14 34 26.333 54.333 37 61s35 10 73 10s62.333 -3.33301 73 -10s23 -27 37 -61l205 -464
c4.66699 -10.667 12.667 -22.667 24 -36s23.333 -23.666 36 -30.999c0.666992 -0.666992 2.16699 -1.5 4.5 -2.5s3.83301 -1.83301 4.5 -2.5s1.83398 -1.5 3.50098 -2.5s2.83398 -1.83301 3.50098 -2.5s1.66699 -1.5 3 -2.5s2.16602 -2.16699 2.49902 -3.5
s0.833008 -2.66602 1.5 -3.99902s1.16699 -3 1.5 -5l1 -6c0.333008 -2 0.5 -4.33301 0.5 -7c0 -22.667 -4.83301 -38.334 -14.5 -47.001s-28.167 -13 -55.5 -13c-9.33301 0 -30.5 0.5 -63.5 1.5s-61.5 1.5 -85.5 1.5c-23.333 0 -51 -0.5 -83 -1.5s-54 -1.5 -66 -1.5
c-14 0 -24.833 5 -32.5 15s-11.5 21.667 -11.5 35c0 9.33301 1 16.833 3 22.5s4.16699 9.83398 6.5 12.501s7.5 7 15.5 13c1.33301 0.666992 3.5 2.16699 6.5 4.5s4.83301 4 5.5 5s2.16699 2.5 4.5 4.5s3.83301 3.33301 4.5 4s1.83398 2 3.50098 4s2.66699 3.83301 3 5.5
s0.833008 3.5 1.5 5.5s1.16699 4.16699 1.5 6.5s0.5 4.83301 0.5 7.5c0 8 -2.66699 15.167 -8 21.5s-12.333 9.5 -21 9.5h-154c-22 0 -33 -15 -33 -45c0 -10 2.33301 -17.167 7 -21.5s14 -8.16602 28 -11.499c14 -4 22.667 -8.33301 26 -13s5 -16.334 5 -35.001
c0 -33.333 -19.667 -50 -59 -50c-10.667 0 -26.667 0.5 -48 1.5s-37.333 1.5 -48 1.5c-11.333 0 -27.666 -0.5 -48.999 -1.5s-37.333 -1.5 -48 -1.5c-16.667 0 -27.834 3.16699 -33.501 9.5s-8.5 18.5 -8.5 36.5c0 27.333 10 44.666 30 51.999c18 6 31.667 14.167 41 24.5
s18.666 26.5 27.999 48.5zM378.999 953.999c32 0 58.667 -11 80 -33s32 -48.333 32 -79s-10.667 -57 -32 -79s-48 -33 -80 -33s-58.667 11 -80 33s-32 48.333 -32 79s10.667 57 32 79s48 33 80 33zM378.999 893.999c-14 0 -26.167 -5.16699 -36.5 -15.5
s-15.5 -22.5 -15.5 -36.5s5.16699 -26.167 15.5 -36.5s22.5 -15.5 36.5 -15.5s26.167 5.16699 36.5 15.5s15.5 22.5 15.5 36.5s-5.16699 26.167 -15.5 36.5s-22.5 15.5 -36.5 15.5z" />
    <glyph glyph-name="AE" unicode="&#xc6;" horiz-adv-x="963" 
d="M48 176l153.003 326.005c14.667 31.333 22 51.666 22 60.999c0 7.33301 -2.16699 13 -6.5 17s-8.83301 6.83301 -13.5 8.5s-9.16699 6 -13.5 13s-6.5 17.167 -6.5 30.5c0 19.333 5 32.666 15 39.999s30.333 11 61 11c28.667 0 80.334 -0.5 155.001 -1.5
s139 -1.5 193 -1.5c28.667 0 71.667 0.5 129 1.5s100.333 1.5 129 1.5c16.667 0 28.5 -3.66699 35.5 -11s10.5 -21.333 10.5 -42v-132c0 -19.333 -2.5 -32.666 -7.5 -39.999s-14.5 -11 -28.5 -11c-13.333 0 -23.333 4.33301 -30 13s-11.834 19.167 -15.501 31.5
s-8.83398 24.666 -15.501 36.999s-19.334 22.833 -38.001 31.5s-43.667 13 -75 13c-15.333 0 -26.5 -0.5 -33.5 -1.5s-13.333 -4.5 -19 -10.5s-8.5 -15.333 -8.5 -28c-1.33301 -40 -2 -69.667 -2 -89c0 -8 1 -13.833 3 -17.5s6.66699 -5.5 14 -5.5
c9.33301 0 17.166 3.83301 23.499 11.5s11 16 14 25s8.16699 17.333 15.5 25s16.666 11.5 27.999 11.5c15.333 0 25.666 -3.66699 30.999 -11s8 -19.333 8 -36v-204c0 -16 -2.66699 -27.667 -8 -35s-14.333 -11 -27 -11c-18 0 -30.833 5.66699 -38.5 17s-11.667 24 -12 38
s-3.16602 26.667 -8.49902 38s-14.666 17 -27.999 17s-20 -9.66699 -20 -29v-106c0 -26.667 4 -42.834 12 -48.501s27.667 -8.5 59 -8.5s57.333 4.66699 78 14s35.5 20.5 44.5 33.5s16.333 26.167 22 39.5s12.334 24.666 20.001 33.999s17.5 14 29.5 14
c11.333 0 20.833 -3.66699 28.5 -11s11.5 -17.333 11.5 -30c0 -38.667 -4.66699 -95.334 -14 -170.001c-2.66699 -18.667 -7 -30.334 -13 -35.001s-18.333 -7 -37 -7c-24.667 0 -61.667 0.5 -111 1.5s-86.333 1.5 -111 1.5s-61.667 -0.5 -111 -1.5s-86.333 -1.5 -111 -1.5
c-13.333 0 -23.833 0.333008 -31.5 1s-16.834 2.16699 -27.501 4.5s-18.5 6.83301 -23.5 13.5s-7.5 15.334 -7.5 26.001c0 17.333 3 30.333 9 39s12.333 13.667 19 15s13 6.33301 19 15s9 21.667 9 39c0 22.667 -1.16699 37.667 -3.5 45s-8.16602 11 -17.499 11h-139
c-18 0 -29.333 -4.66699 -34 -14c-17.333 -38 -26 -59.667 -26 -65c0 -10.667 2.83301 -18.5 8.5 -23.5s11.667 -8.16699 18 -9.5s12.333 -6.33301 18 -15s8.5 -21.667 8.5 -39c0 -15.333 -2.33301 -26.333 -7 -33s-14 -10 -28 -10c-10.667 0 -26.667 0.5 -48 1.5
s-37.333 1.5 -48 1.5s-26.667 -0.5 -48 -1.5s-37.333 -1.5 -48 -1.5c-17.333 0 -29.5 3.33301 -36.5 10s-10.5 19 -10.5 37c0 16 1.66699 26.833 5 32.5s10.166 11.667 20.499 18s19.166 13.5 26.499 21.5c16.667 18 30.334 38 41.001 60zM350.003 542.005l-87 -196.002
c-4 -9.33301 -4.83301 -15.666 -2.5 -18.999s9.16602 -5 20.499 -5h73c14.667 0 25.334 3.16699 32.001 9.5s10 17.166 10 32.499v175c0 22.667 -5.66699 34 -17 34c-6 0 -10.5 -1.16699 -13.5 -3.5s-6.16699 -7.16602 -9.5 -14.499s-5.33301 -11.666 -6 -12.999z" />
    <glyph glyph-name="Ccedilla" unicode="&#xc7;" horiz-adv-x="685" 
d="M298 -98l38.998 83.0039c-54 3.33301 -101.5 15.5 -142.5 36.5s-73.5 48 -97.5 81s-42 69 -54 108s-18 80.167 -18 123.5c0 47.333 6.33301 91.833 19 133.5s31.834 80 57.501 115s60.667 62.833 105 83.5s95.5 31 153.5 31c28.667 0 62.334 -2.66699 101.001 -8
c33.333 -6 52 -9 56 -9c13.333 0 24.666 2 33.999 6c8 4 15.333 6 22 6c20.667 0 34.5 -6.5 41.5 -19.5s12.833 -33.5 17.5 -61.5c0.666992 -3.33301 1 -5.66602 1 -6.99902c8.66699 -50.667 13 -91.334 13 -122.001c0 -32 -17.667 -48 -53 -48c-8 0 -19.167 7.5 -33.5 22.5
s-28.333 31.333 -42 49s-31.334 34 -53.001 49s-43.5 22.5 -65.5 22.5c-28.667 0 -52.167 -13.667 -70.5 -41s-30.166 -55.5 -35.499 -84.5s-8 -57.5 -8 -85.5c0 -64 13.5 -122.5 40.5 -175.5s62.833 -79.5 107.5 -79.5c26 0 48.5 5.66699 67.5 17
s32.833 23.666 41.5 36.999s18.334 25.666 29.001 36.999s21.334 17 32.001 17c12.667 0 22.167 -4 28.5 -12s10 -15.833 11 -23.5s1.5 -18.5 1.5 -32.5c0 -13.333 -0.166992 -23.833 -0.5 -31.5s-1.33301 -17.834 -3 -30.501s-4.33398 -22.834 -8.00098 -30.501
s-9.16699 -15.5 -16.5 -23.5s-16.333 -14.333 -27 -19c-50.667 -21.333 -119.334 -32 -206.001 -32l-20 -45c12 3.33301 25.667 5 41 5c24 0 44.5 -6.16699 61.5 -18.5s25.5 -30.166 25.5 -53.499c0 -18.667 -5 -34.5 -15 -47.5s-23.167 -22.667 -39.5 -29
s-32.5 -10.833 -48.5 -13.5s-32.667 -4 -50 -4c-30.667 0 -61 6 -91 18l17 44c25.333 -9.33301 47.333 -14 66 -14c12.667 0 23.834 3.16699 33.501 9.5s14.5 15.5 14.5 27.5c0 9.33301 -3.5 17.666 -10.5 24.999s-15.167 11 -24.5 11c-12 0 -21.667 -2 -29 -6z" />
    <glyph glyph-name="Egrave" unicode="&#xc8;" horiz-adv-x="704" 
d="M495 420l-0.000976562 -179.998c0 -15.333 -2.5 -25.666 -7.5 -30.999s-16.167 -8 -33.5 -8c-20.667 0 -34.334 10.667 -41.001 32c-9.33301 32 -18.666 52.333 -27.999 61s-24.333 13 -45 13l5 -139c0.666992 -18 6.5 -31.333 17.5 -40s24.833 -13 41.5 -13
c36.667 0 67.834 4.66699 93.501 14s44.334 20.5 56.001 33.5s21.167 26.167 28.5 39.5s14.666 24.666 21.999 33.999s16.333 14 27 14c26 0 39 -16 39 -48c0 -4 -0.166992 -8.33301 -0.5 -13s-0.833008 -9.66699 -1.5 -15s-1 -9.66602 -1 -12.999l-10 -122
c-2.66699 -18.667 -7 -30.334 -13 -35.001s-18.333 -7 -37 -7c-28.667 0 -71.334 0.5 -128.001 1.5s-99 1.5 -127 1.5c-170 -2 -261 -3 -273 -3c-16.667 0 -28.167 3.33301 -34.5 10s-9.5 17 -9.5 31c0 6 0.333008 11.167 1 15.5s1.33398 8.16602 2.00098 11.499
s2 6.33301 4 9l4.5 6c1 1.33301 3.33301 3 7 5s6 3.16699 7 3.5s4.16699 1.33301 9.5 3s8.66602 2.83398 9.99902 3.50098c10 4 16 19.333 18 46s3 93 3 199s-1 172.333 -3 199s-8 42 -18 46c-1.33301 0.666992 -4.66602 1.83398 -9.99902 3.50098s-8.5 2.66699 -9.5 3
s-3.33301 1.5 -7 3.5s-6 3.66699 -7 5l-4.5 6c-2 2.66699 -3.33301 5.66699 -4 9s-1.33398 7.16602 -2.00098 11.499s-1 9.5 -1 15.5c0 14 3.16699 24.333 9.5 31s17.833 10 34.5 10c28.667 0 71.667 -0.5 129 -1.5s100.333 -1.5 129 -1.5s71.667 0.5 129 1.5
s100.333 1.5 129 1.5c20 0 32.667 -4.5 38 -13.5s8 -29.5 8 -61.5v-88c0 -33.333 -1.66699 -53.5 -5 -60.5s-13.666 -10.5 -30.999 -10.5c-12.667 0 -22 1.66699 -28 5s-10 10.666 -12 21.999c-13.333 64.667 -68.666 97 -165.999 97c-28.667 0 -47 -4.83301 -55 -14.5
s-12 -33.834 -12 -72.501c0 -25.333 2 -42.333 6 -51s12.667 -13 26 -13c14 0 24.5 3.5 31.5 10.5s11.167 14.5 12.5 22.5s5.66602 15.5 12.999 22.5s18.333 10.5 33 10.5c17.333 0 28.5 -4.16699 33.5 -12.5s7.5 -26.833 7.5 -55.5zM450.999 730.002h-66l-129 72
c-2 1.33301 -5.16699 3.33301 -9.5 6l-9 5.5c-1.66699 1 -4.33398 2.83301 -8.00098 5.5s-6.16699 4.66699 -7.5 6s-3.33301 3.16602 -6 5.49902s-4.5 4.33301 -5.5 6s-2.5 3.83398 -4.5 6.50098s-3.16699 5.33398 -3.5 8.00098s-0.833008 5.66699 -1.5 9
s-1 6.66602 -1 9.99902c0 18 5.66699 31.833 17 41.5s25 14.5 41 14.5c16.667 0 32.334 -5 47.001 -15s35 -32.333 61 -67z" />
    <glyph glyph-name="Eacute" unicode="&#xc9;" horiz-adv-x="704" 
d="M495 420l-0.000976562 -179.998c0 -15.333 -2.5 -25.666 -7.5 -30.999s-16.167 -8 -33.5 -8c-20.667 0 -34.334 10.667 -41.001 32c-9.33301 32 -18.666 52.333 -27.999 61s-24.333 13 -45 13l5 -139c0.666992 -18 6.5 -31.333 17.5 -40s24.833 -13 41.5 -13
c36.667 0 67.834 4.66699 93.501 14s44.334 20.5 56.001 33.5s21.167 26.167 28.5 39.5s14.666 24.666 21.999 33.999s16.333 14 27 14c26 0 39 -16 39 -48c0 -4 -0.166992 -8.33301 -0.5 -13s-0.833008 -9.66699 -1.5 -15s-1 -9.66602 -1 -12.999l-10 -122
c-2.66699 -18.667 -7 -30.334 -13 -35.001s-18.333 -7 -37 -7c-28.667 0 -71.334 0.5 -128.001 1.5s-99 1.5 -127 1.5c-170 -2 -261 -3 -273 -3c-16.667 0 -28.167 3.33301 -34.5 10s-9.5 17 -9.5 31c0 6 0.333008 11.167 1 15.5s1.33398 8.16602 2.00098 11.499
s2 6.33301 4 9l4.5 6c1 1.33301 3.33301 3 7 5s6 3.16699 7 3.5s4.16699 1.33301 9.5 3s8.66602 2.83398 9.99902 3.50098c10 4 16 19.333 18 46s3 93 3 199s-1 172.333 -3 199s-8 42 -18 46c-1.33301 0.666992 -4.66602 1.83398 -9.99902 3.50098s-8.5 2.66699 -9.5 3
s-3.33301 1.5 -7 3.5s-6 3.66699 -7 5l-4.5 6c-2 2.66699 -3.33301 5.66699 -4 9s-1.33398 7.16602 -2.00098 11.499s-1 9.5 -1 15.5c0 14 3.16699 24.333 9.5 31s17.833 10 34.5 10c28.667 0 71.667 -0.5 129 -1.5s100.333 -1.5 129 -1.5s71.667 0.5 129 1.5
s100.333 1.5 129 1.5c20 0 32.667 -4.5 38 -13.5s8 -29.5 8 -61.5v-88c0 -33.333 -1.66699 -53.5 -5 -60.5s-13.666 -10.5 -30.999 -10.5c-12.667 0 -22 1.66699 -28 5s-10 10.666 -12 21.999c-13.333 64.667 -68.666 97 -165.999 97c-28.667 0 -47 -4.83301 -55 -14.5
s-12 -33.834 -12 -72.501c0 -25.333 2 -42.333 6 -51s12.667 -13 26 -13c14 0 24.5 3.5 31.5 10.5s11.167 14.5 12.5 22.5s5.66602 15.5 12.999 22.5s18.333 10.5 33 10.5c17.333 0 28.5 -4.16699 33.5 -12.5s7.5 -26.833 7.5 -55.5zM281.999 730.002l85.001 114.002l12 16
c6 8 10.167 13.667 12.5 17s6.5 8.16602 12.5 14.499s11 11 15 14s9.16699 6.5 15.5 10.5s12.833 6.66699 19.5 8s13.667 2 21 2c16 0 29.667 -4.83301 41 -14.5s17 -23.5 17 -41.5c0 -4 -0.166992 -7.66699 -0.5 -11s-1.33301 -6.66602 -3 -9.99902
s-2.83398 -6 -3.50098 -8s-2.5 -4.5 -5.5 -7.5l-6.5 -6.5c-1.33301 -1.33301 -4 -3.5 -8 -6.5s-6.66699 -4.83301 -8 -5.5s-4.83301 -2.83398 -10.5 -6.50098s-9.16699 -5.83398 -10.5 -6.50098l-129 -72h-66z" />
    <glyph glyph-name="Ecircumflex" unicode="&#xca;" horiz-adv-x="704" 
d="M495 420l-0.000976562 -179.998c0 -15.333 -2.5 -25.666 -7.5 -30.999s-16.167 -8 -33.5 -8c-20.667 0 -34.334 10.667 -41.001 32c-9.33301 32 -18.666 52.333 -27.999 61s-24.333 13 -45 13l5 -139c0.666992 -18 6.5 -31.333 17.5 -40s24.833 -13 41.5 -13
c36.667 0 67.834 4.66699 93.501 14s44.334 20.5 56.001 33.5s21.167 26.167 28.5 39.5s14.666 24.666 21.999 33.999s16.333 14 27 14c26 0 39 -16 39 -48c0 -4 -0.166992 -8.33301 -0.5 -13s-0.833008 -9.66699 -1.5 -15s-1 -9.66602 -1 -12.999l-10 -122
c-2.66699 -18.667 -7 -30.334 -13 -35.001s-18.333 -7 -37 -7c-28.667 0 -71.334 0.5 -128.001 1.5s-99 1.5 -127 1.5c-170 -2 -261 -3 -273 -3c-16.667 0 -28.167 3.33301 -34.5 10s-9.5 17 -9.5 31c0 6 0.333008 11.167 1 15.5s1.33398 8.16602 2.00098 11.499
s2 6.33301 4 9l4.5 6c1 1.33301 3.33301 3 7 5s6 3.16699 7 3.5s4.16699 1.33301 9.5 3s8.66602 2.83398 9.99902 3.50098c10 4 16 19.333 18 46s3 93 3 199s-1 172.333 -3 199s-8 42 -18 46c-1.33301 0.666992 -4.66602 1.83398 -9.99902 3.50098s-8.5 2.66699 -9.5 3
s-3.33301 1.5 -7 3.5s-6 3.66699 -7 5l-4.5 6c-2 2.66699 -3.33301 5.66699 -4 9s-1.33398 7.16602 -2.00098 11.499s-1 9.5 -1 15.5c0 14 3.16699 24.333 9.5 31s17.833 10 34.5 10c28.667 0 71.667 -0.5 129 -1.5s100.333 -1.5 129 -1.5s71.667 0.5 129 1.5
s100.333 1.5 129 1.5c20 0 32.667 -4.5 38 -13.5s8 -29.5 8 -61.5v-88c0 -33.333 -1.66699 -53.5 -5 -60.5s-13.666 -10.5 -30.999 -10.5c-12.667 0 -22 1.66699 -28 5s-10 10.666 -12 21.999c-13.333 64.667 -68.666 97 -165.999 97c-28.667 0 -47 -4.83301 -55 -14.5
s-12 -33.834 -12 -72.501c0 -25.333 2 -42.333 6 -51s12.667 -13 26 -13c14 0 24.5 3.5 31.5 10.5s11.167 14.5 12.5 22.5s5.66602 15.5 12.999 22.5s18.333 10.5 33 10.5c17.333 0 28.5 -4.16699 33.5 -12.5s7.5 -26.833 7.5 -55.5zM366.999 820.002l-107 -90h-78l122 180
h125l123 -180h-78z" />
    <glyph glyph-name="Edieresis" unicode="&#xcb;" horiz-adv-x="704" 
d="M495 420l-0.000976562 -179.998c0 -15.333 -2.5 -25.666 -7.5 -30.999s-16.167 -8 -33.5 -8c-20.667 0 -34.334 10.667 -41.001 32c-9.33301 32 -18.666 52.333 -27.999 61s-24.333 13 -45 13l5 -139c0.666992 -18 6.5 -31.333 17.5 -40s24.833 -13 41.5 -13
c36.667 0 67.834 4.66699 93.501 14s44.334 20.5 56.001 33.5s21.167 26.167 28.5 39.5s14.666 24.666 21.999 33.999s16.333 14 27 14c26 0 39 -16 39 -48c0 -4 -0.166992 -8.33301 -0.5 -13s-0.833008 -9.66699 -1.5 -15s-1 -9.66602 -1 -12.999l-10 -122
c-2.66699 -18.667 -7 -30.334 -13 -35.001s-18.333 -7 -37 -7c-28.667 0 -71.334 0.5 -128.001 1.5s-99 1.5 -127 1.5c-170 -2 -261 -3 -273 -3c-16.667 0 -28.167 3.33301 -34.5 10s-9.5 17 -9.5 31c0 6 0.333008 11.167 1 15.5s1.33398 8.16602 2.00098 11.499
s2 6.33301 4 9l4.5 6c1 1.33301 3.33301 3 7 5s6 3.16699 7 3.5s4.16699 1.33301 9.5 3s8.66602 2.83398 9.99902 3.50098c10 4 16 19.333 18 46s3 93 3 199s-1 172.333 -3 199s-8 42 -18 46c-1.33301 0.666992 -4.66602 1.83398 -9.99902 3.50098s-8.5 2.66699 -9.5 3
s-3.33301 1.5 -7 3.5s-6 3.66699 -7 5l-4.5 6c-2 2.66699 -3.33301 5.66699 -4 9s-1.33398 7.16602 -2.00098 11.499s-1 9.5 -1 15.5c0 14 3.16699 24.333 9.5 31s17.833 10 34.5 10c28.667 0 71.667 -0.5 129 -1.5s100.333 -1.5 129 -1.5s71.667 0.5 129 1.5
s100.333 1.5 129 1.5c20 0 32.667 -4.5 38 -13.5s8 -29.5 8 -61.5v-88c0 -33.333 -1.66699 -53.5 -5 -60.5s-13.666 -10.5 -30.999 -10.5c-12.667 0 -22 1.66699 -28 5s-10 10.666 -12 21.999c-13.333 64.667 -68.666 97 -165.999 97c-28.667 0 -47 -4.83301 -55 -14.5
s-12 -33.834 -12 -72.501c0 -25.333 2 -42.333 6 -51s12.667 -13 26 -13c14 0 24.5 3.5 31.5 10.5s11.167 14.5 12.5 22.5s5.66602 15.5 12.999 22.5s18.333 10.5 33 10.5c17.333 0 28.5 -4.16699 33.5 -12.5s7.5 -26.833 7.5 -55.5zM256.999 892.002
c22 0 40.5 -7.66699 55.5 -23s22.5 -34 22.5 -56s-7.5 -40.667 -22.5 -56s-33.5 -23 -55.5 -23s-40.5 7.66699 -55.5 23s-22.5 34 -22.5 56s7.5 40.667 22.5 56s33.5 23 55.5 23zM475.999 892.002c22 0 40.5 -7.66699 55.5 -23s22.5 -34 22.5 -56s-7.5 -40.667 -22.5 -56
s-33.5 -23 -55.5 -23s-40.5 7.66699 -55.5 23s-22.5 34 -22.5 56s7.5 40.667 22.5 56s33.5 23 55.5 23z" />
    <glyph glyph-name="Igrave" unicode="&#xcc;" horiz-adv-x="463" 
d="M412 49c0 -20 -3.00098 -33.6689 -9.00098 -41.002s-16.333 -11 -31 -11c-16 0 -40.167 0.5 -72.5 1.5s-56.5 1.5 -72.5 1.5s-40.167 -0.5 -72.5 -1.5s-56.5 -1.5 -72.5 -1.5c-18.667 0 -32 3.33301 -40 10s-12 21 -12 43c0 16 2.5 27 7.5 33s10.5 8.83301 16.5 8.5
s12 3.83398 18 12.501s10 22.667 12 42c4 44.667 6 111 6 199c0 80.667 -2.33301 147 -7 199c-1.33301 13.333 -4.66602 23.5 -9.99902 30.5s-11 11.5 -17 13.5s-11.5 6.66699 -16.5 14s-7.5 18.333 -7.5 33c0 20.667 4.83301 33.834 14.5 39.501s25.834 8.5 48.501 8.5
c12.667 0 31.5 -0.5 56.5 -1.5s43.833 -1.5 56.5 -1.5s31.5 0.5 56.5 1.5s43.833 1.5 56.5 1.5c20.667 0 36.167 -3.16699 46.5 -9.5s15.5 -19.833 15.5 -40.5c0 -14 -2.33301 -24.667 -7 -32s-9.83398 -11.833 -15.501 -13.5s-10.667 -6 -15 -13s-6.5 -17.167 -6.5 -30.5
c-4.66699 -52 -7 -118.333 -7 -199c0 -88 2 -154.333 6 -199c2 -18 7 -30.833 15 -38.5s16.333 -11.5 25 -11.5s16.5 -3.5 23.5 -10.5s10.5 -19.167 10.5 -36.5zM315.999 729.998h-66l-129 72c-2 1.33301 -5.16699 3.33301 -9.5 6l-9 5.5
c-1.66699 1 -4.33398 2.83301 -8.00098 5.5s-6.16699 4.66699 -7.5 6s-3.33301 3.16602 -6 5.49902s-4.5 4.33301 -5.5 6s-2.5 3.83398 -4.5 6.50098s-3.16699 5.33398 -3.5 8.00098s-0.833008 5.66699 -1.5 9s-1 6.66602 -1 9.99902c0 18 5.66699 31.833 17 41.5
s25 14.5 41 14.5c16.667 0 32.334 -5 47.001 -15s35 -32.333 61 -67z" />
    <glyph glyph-name="Iacute" unicode="&#xcd;" horiz-adv-x="463" 
d="M412 49c0 -20 -3.00098 -33.6689 -9.00098 -41.002s-16.333 -11 -31 -11c-16 0 -40.167 0.5 -72.5 1.5s-56.5 1.5 -72.5 1.5s-40.167 -0.5 -72.5 -1.5s-56.5 -1.5 -72.5 -1.5c-18.667 0 -32 3.33301 -40 10s-12 21 -12 43c0 16 2.5 27 7.5 33s10.5 8.83301 16.5 8.5
s12 3.83398 18 12.501s10 22.667 12 42c4 44.667 6 111 6 199c0 80.667 -2.33301 147 -7 199c-1.33301 13.333 -4.66602 23.5 -9.99902 30.5s-11 11.5 -17 13.5s-11.5 6.66699 -16.5 14s-7.5 18.333 -7.5 33c0 20.667 4.83301 33.834 14.5 39.501s25.834 8.5 48.501 8.5
c12.667 0 31.5 -0.5 56.5 -1.5s43.833 -1.5 56.5 -1.5s31.5 0.5 56.5 1.5s43.833 1.5 56.5 1.5c20.667 0 36.167 -3.16699 46.5 -9.5s15.5 -19.833 15.5 -40.5c0 -14 -2.33301 -24.667 -7 -32s-9.83398 -11.833 -15.501 -13.5s-10.667 -6 -15 -13s-6.5 -17.167 -6.5 -30.5
c-4.66699 -52 -7 -118.333 -7 -199c0 -88 2 -154.333 6 -199c2 -18 7 -30.833 15 -38.5s16.333 -11.5 25 -11.5s16.5 -3.5 23.5 -10.5s10.5 -19.167 10.5 -36.5zM146.999 729.998l85.001 114.002l12 16c6 8 10.167 13.667 12.5 17s6.5 8.16602 12.5 14.499s11 11 15 14
s9.16699 6.5 15.5 10.5s12.833 6.66699 19.5 8s13.667 2 21 2c16 0 29.667 -4.83301 41 -14.5s17 -23.5 17 -41.5c0 -4 -0.166992 -7.66699 -0.5 -11s-1.33301 -6.66602 -3 -9.99902s-2.83398 -6 -3.50098 -8s-2.5 -4.5 -5.5 -7.5l-6.5 -6.5
c-1.33301 -1.33301 -4 -3.5 -8 -6.5s-6.66699 -4.83301 -8 -5.5s-4.83301 -2.83398 -10.5 -6.50098s-9.16699 -5.83398 -10.5 -6.50098l-129 -72h-66z" />
    <glyph glyph-name="Icircumflex" unicode="&#xce;" horiz-adv-x="463" 
d="M412 49c0 -20 -3.00098 -33.6689 -9.00098 -41.002s-16.333 -11 -31 -11c-16 0 -40.167 0.5 -72.5 1.5s-56.5 1.5 -72.5 1.5s-40.167 -0.5 -72.5 -1.5s-56.5 -1.5 -72.5 -1.5c-18.667 0 -32 3.33301 -40 10s-12 21 -12 43c0 16 2.5 27 7.5 33s10.5 8.83301 16.5 8.5
s12 3.83398 18 12.501s10 22.667 12 42c4 44.667 6 111 6 199c0 80.667 -2.33301 147 -7 199c-1.33301 13.333 -4.66602 23.5 -9.99902 30.5s-11 11.5 -17 13.5s-11.5 6.66699 -16.5 14s-7.5 18.333 -7.5 33c0 20.667 4.83301 33.834 14.5 39.501s25.834 8.5 48.501 8.5
c12.667 0 31.5 -0.5 56.5 -1.5s43.833 -1.5 56.5 -1.5s31.5 0.5 56.5 1.5s43.833 1.5 56.5 1.5c20.667 0 36.167 -3.16699 46.5 -9.5s15.5 -19.833 15.5 -40.5c0 -14 -2.33301 -24.667 -7 -32s-9.83398 -11.833 -15.501 -13.5s-10.667 -6 -15 -13s-6.5 -17.167 -6.5 -30.5
c-4.66699 -52 -7 -118.333 -7 -199c0 -88 2 -154.333 6 -199c2 -18 7 -30.833 15 -38.5s16.333 -11.5 25 -11.5s16.5 -3.5 23.5 -10.5s10.5 -19.167 10.5 -36.5zM231.999 819.998l-107 -90h-78l122 180h125l123 -180h-78z" />
    <glyph glyph-name="Idieresis" unicode="&#xcf;" horiz-adv-x="463" 
d="M412 49c0 -20 -3.00098 -33.6689 -9.00098 -41.002s-16.333 -11 -31 -11c-16 0 -40.167 0.5 -72.5 1.5s-56.5 1.5 -72.5 1.5s-40.167 -0.5 -72.5 -1.5s-56.5 -1.5 -72.5 -1.5c-18.667 0 -32 3.33301 -40 10s-12 21 -12 43c0 16 2.5 27 7.5 33s10.5 8.83301 16.5 8.5
s12 3.83398 18 12.501s10 22.667 12 42c4 44.667 6 111 6 199c0 80.667 -2.33301 147 -7 199c-1.33301 13.333 -4.66602 23.5 -9.99902 30.5s-11 11.5 -17 13.5s-11.5 6.66699 -16.5 14s-7.5 18.333 -7.5 33c0 20.667 4.83301 33.834 14.5 39.501s25.834 8.5 48.501 8.5
c12.667 0 31.5 -0.5 56.5 -1.5s43.833 -1.5 56.5 -1.5s31.5 0.5 56.5 1.5s43.833 1.5 56.5 1.5c20.667 0 36.167 -3.16699 46.5 -9.5s15.5 -19.833 15.5 -40.5c0 -14 -2.33301 -24.667 -7 -32s-9.83398 -11.833 -15.501 -13.5s-10.667 -6 -15 -13s-6.5 -17.167 -6.5 -30.5
c-4.66699 -52 -7 -118.333 -7 -199c0 -88 2 -154.333 6 -199c2 -18 7 -30.833 15 -38.5s16.333 -11.5 25 -11.5s16.5 -3.5 23.5 -10.5s10.5 -19.167 10.5 -36.5zM121.999 891.998c22 0 40.5 -7.66699 55.5 -23s22.5 -34 22.5 -56s-7.5 -40.667 -22.5 -56
s-33.5 -23 -55.5 -23s-40.5 7.66699 -55.5 23s-22.5 34 -22.5 56s7.5 40.667 22.5 56s33.5 23 55.5 23zM340.999 891.998c22 0 40.5 -7.66699 55.5 -23s22.5 -34 22.5 -56s-7.5 -40.667 -22.5 -56s-33.5 -23 -55.5 -23s-40.5 7.66699 -55.5 23s-22.5 34 -22.5 56
s7.5 40.667 22.5 56s33.5 23 55.5 23z" />
    <glyph glyph-name="Eth" unicode="&#xd0;" horiz-adv-x="796" 
d="M85 194l0.00195312 105.999h-43c-12.667 0 -21.167 4.83301 -25.5 14.5s-6.5 26.834 -6.5 51.501c0 36.667 10.333 55 31 55h44v62c0 34 -2.33301 57.833 -7 71.5s-12.667 23.834 -24 30.501c-1.33301 0.666992 -4.16602 1.83398 -8.49902 3.50098
s-7.33301 3.16699 -9 4.5s-3.5 4 -5.5 8s-3 9.33301 -3 16c0 16.667 0.5 28.667 1.5 36s4.16699 14.166 9.5 20.499s13.666 9.5 24.999 9.5c20 0 49.667 -0.5 89 -1.5s68.666 -1.5 87.999 -1.5s48.666 0.5 87.999 1.5s69 1.5 89 1.5c102.667 0 186.167 -29.833 250.5 -89.5
s96.5 -140.834 96.5 -243.501c-1.33301 -108 -31.5 -193.833 -90.5 -257.5s-142.167 -95.5 -249.5 -95.5c-20.667 0 -52 0.5 -94 1.5s-73.667 1.5 -95 1.5s-53 -0.5 -95 -1.5s-73.333 -1.5 -94 -1.5c-16 0 -24 16 -24 48c0 16.667 2 27.834 6 33.501s13.333 11.167 28 16.5
c10 4 17.167 12.667 21.5 26s6.5 37.666 6.5 72.999zM327.002 299.999l0.00195312 -61.999c0 -46.667 4.16699 -78.834 12.5 -96.501s22.166 -26.5 41.499 -26.5c24.667 0 45.5 6.66699 62.5 20s29.833 31 38.5 53s14.667 44 18 66s5 45 5 69
c0 71.333 -14.333 130.833 -43 178.5s-65.334 71.5 -110.001 71.5c-10 0 -16.667 -10 -20 -30s-5 -55.667 -5 -107v-15h45c20 0 30 -20 30 -60c0 -24 -1.83301 -40.167 -5.5 -48.5s-14.167 -12.5 -31.5 -12.5h-38z" />
    <glyph glyph-name="Ntilde" unicode="&#xd1;" horiz-adv-x="778" 
d="M587 16l-294.003 250.999c-32.667 27.333 -49.667 41 -51 41c-9.33301 0 -14 -14.333 -14 -43c0 -43.333 2.33301 -81.666 7 -114.999c2.66699 -16.667 8.16699 -28.834 16.5 -36.501s17.5 -12.167 27.5 -13.5s19.833 -2.5 29.5 -3.5s17.834 -5.16699 24.501 -12.5
s10 -19 10 -35c0 -20 -3.5 -33.667 -10.5 -41s-19.833 -11 -38.5 -11c-13.333 0 -33.333 0.5 -60 1.5s-46.667 1.5 -60 1.5s-33.166 -0.5 -59.499 -1.5s-45.5 -1.5 -57.5 -1.5c-23.333 0 -35 16.667 -35 50c0 17.333 3.83301 29 11.5 35s16.5 9.16699 26.5 9.5
s19.833 7.5 29.5 21.5s15.834 36.333 18.501 67c3.33301 38.667 5 94.334 5 167.001c0 44.667 -1.66699 99.334 -5 164.001c-0.666992 18.667 -5.33398 33.167 -14.001 43.5s-17.834 16.833 -27.501 19.5s-18.5 8.66699 -26.5 18s-12 22.666 -12 39.999
c0 34 12.333 51 37 51c6 0 15.167 -0.5 27.5 -1.5s21.5 -1.5 27.5 -1.5s14.833 0.5 26.5 1.5s20.5 1.5 26.5 1.5h16c2.66699 0 6 -1 10 -3s6.66699 -3.66699 8 -5s5.5 -5.16602 12.5 -11.499l20.5 -18.5l272 -240c33.333 -30 51.333 -45 54 -45c4.66699 0 7 16.333 7 49
c0 92 -10.333 145 -31 159c-7.33301 5.33301 -18.166 9.5 -32.499 12.5s-24.666 7.66699 -30.999 14s-9.5 18.5 -9.5 36.5c0 34.667 14 52 42 52c10 0 26.333 -0.5 49 -1.5s40.667 -1.5 54 -1.5c12.667 0 31.667 0.5 57 1.5s44.333 1.5 57 1.5c14.667 0 24.5 -4 29.5 -12
s7.5 -20.333 7.5 -37c0 -16 -4 -27.667 -12 -35s-16.833 -12 -26.5 -14s-18.5 -10.167 -26.5 -24.5s-12 -35.833 -12 -64.5v-416c0 -14 -0.333008 -25 -1 -33s-2 -17.833 -4 -29.5s-6 -20.334 -12 -26.001s-13.667 -8.5 -23 -8.5c-16 0 -36.333 11 -61 33zM547.997 890.999
h55.001c-20.667 -97.333 -62.667 -146 -126 -146c-28.667 0 -61.667 9 -99 27c-38.667 17.333 -63 26 -73 26c-12.667 0 -23.334 -4.83301 -32.001 -14.5s-13.667 -21.167 -15 -34.5h-52c12 97.333 56.333 146 133 146c20 0 48.667 -8.66699 86 -26
c40 -18.667 65 -28 75 -28c24 0 40 16.667 48 50z" />
    <glyph glyph-name="Ograve" unicode="&#xd2;" horiz-adv-x="741" 
d="M370 -17c-110 0 -195.667 32.667 -257 98s-92 151.666 -92 258.999s30.667 193.666 92 258.999s147 98 257 98s195.667 -32.667 257 -98s92 -151.666 92 -258.999s-30.667 -193.666 -92 -258.999s-147 -98 -257 -98zM281 421c0 -212 33.333 -317.998 100 -317.998
c52 0 78 52 78 156c0 51.333 -2.16699 96.666 -6.5 135.999s-9.66602 70.166 -15.999 92.499s-14 40.5 -23 54.5s-17.333 23.333 -25 28s-15.834 7 -24.501 7c-55.333 0 -83 -52 -83 -156zM455 730.002h-66l-129 72c-2 1.33301 -5.16699 3.33301 -9.5 6l-9 5.5
c-1.66699 1 -4.33398 2.83301 -8.00098 5.5s-6.16699 4.66699 -7.5 6s-3.33301 3.16602 -6 5.49902s-4.5 4.33301 -5.5 6s-2.5 3.83398 -4.5 6.50098s-3.16699 5.33398 -3.5 8.00098s-0.833008 5.66699 -1.5 9s-1 6.66602 -1 9.99902c0 18 5.66699 31.833 17 41.5
s25 14.5 41 14.5c16.667 0 32.334 -5 47.001 -15s35 -32.333 61 -67z" />
    <glyph glyph-name="Oacute" unicode="&#xd3;" horiz-adv-x="741" 
d="M370 -17c-110 0 -195.667 32.667 -257 98s-92 151.666 -92 258.999s30.667 193.666 92 258.999s147 98 257 98s195.667 -32.667 257 -98s92 -151.666 92 -258.999s-30.667 -193.666 -92 -258.999s-147 -98 -257 -98zM281 421c0 -212 33.333 -317.998 100 -317.998
c52 0 78 52 78 156c0 51.333 -2.16699 96.666 -6.5 135.999s-9.66602 70.166 -15.999 92.499s-14 40.5 -23 54.5s-17.333 23.333 -25 28s-15.834 7 -24.501 7c-55.333 0 -83 -52 -83 -156zM286 730.002l85.001 114.002l12 16c6 8 10.167 13.667 12.5 17
s6.5 8.16602 12.5 14.499s11 11 15 14s9.16699 6.5 15.5 10.5s12.833 6.66699 19.5 8s13.667 2 21 2c16 0 29.667 -4.83301 41 -14.5s17 -23.5 17 -41.5c0 -4 -0.166992 -7.66699 -0.5 -11s-1.33301 -6.66602 -3 -9.99902s-2.83398 -6 -3.50098 -8s-2.5 -4.5 -5.5 -7.5
l-6.5 -6.5c-1.33301 -1.33301 -4 -3.5 -8 -6.5s-6.66699 -4.83301 -8 -5.5s-4.83301 -2.83398 -10.5 -6.50098s-9.16699 -5.83398 -10.5 -6.50098l-129 -72h-66z" />
    <glyph glyph-name="Ocircumflex" unicode="&#xd4;" horiz-adv-x="741" 
d="M370 -17c-110 0 -195.667 32.667 -257 98s-92 151.666 -92 258.999s30.667 193.666 92 258.999s147 98 257 98s195.667 -32.667 257 -98s92 -151.666 92 -258.999s-30.667 -193.666 -92 -258.999s-147 -98 -257 -98zM281 421c0 -212 33.333 -317.998 100 -317.998
c52 0 78 52 78 156c0 51.333 -2.16699 96.666 -6.5 135.999s-9.66602 70.166 -15.999 92.499s-14 40.5 -23 54.5s-17.333 23.333 -25 28s-15.834 7 -24.501 7c-55.333 0 -83 -52 -83 -156zM371 820.002l-107 -90h-78l122 180h125l123 -180h-78z" />
    <glyph glyph-name="Otilde" unicode="&#xd5;" horiz-adv-x="741" 
d="M370 -17c-110 0 -195.667 32.667 -257 98s-92 151.666 -92 258.999s30.667 193.666 92 258.999s147 98 257 98s195.667 -32.667 257 -98s92 -151.666 92 -258.999s-30.667 -193.666 -92 -258.999s-147 -98 -257 -98zM281 421c0 -212 33.333 -317.998 100 -317.998
c52 0 78 52 78 156c0 51.333 -2.16699 96.666 -6.5 135.999s-9.66602 70.166 -15.999 92.499s-14 40.5 -23 54.5s-17.333 23.333 -25 28s-15.834 7 -24.501 7c-55.333 0 -83 -52 -83 -156zM515 891.002h55.001c-20.667 -97.333 -62.667 -146 -126 -146
c-28.667 0 -61.667 9 -99 27c-38.667 17.333 -63 26 -73 26c-12.667 0 -23.334 -4.83301 -32.001 -14.5s-13.667 -21.167 -15 -34.5h-52c12 97.333 56.333 146 133 146c20 0 48.667 -8.66699 86 -26c40 -18.667 65 -28 75 -28c24 0 40 16.667 48 50z" />
    <glyph glyph-name="Odieresis" unicode="&#xd6;" horiz-adv-x="741" 
d="M370 -17c-110 0 -195.667 32.667 -257 98s-92 151.666 -92 258.999s30.667 193.666 92 258.999s147 98 257 98s195.667 -32.667 257 -98s92 -151.666 92 -258.999s-30.667 -193.666 -92 -258.999s-147 -98 -257 -98zM281 421c0 -212 33.333 -317.998 100 -317.998
c52 0 78 52 78 156c0 51.333 -2.16699 96.666 -6.5 135.999s-9.66602 70.166 -15.999 92.499s-14 40.5 -23 54.5s-17.333 23.333 -25 28s-15.834 7 -24.501 7c-55.333 0 -83 -52 -83 -156zM261 892.002c22 0 40.5 -7.66699 55.5 -23s22.5 -34 22.5 -56
s-7.5 -40.667 -22.5 -56s-33.5 -23 -55.5 -23s-40.5 7.66699 -55.5 23s-22.5 34 -22.5 56s7.5 40.667 22.5 56s33.5 23 55.5 23zM480 892.002c22 0 40.5 -7.66699 55.5 -23s22.5 -34 22.5 -56s-7.5 -40.667 -22.5 -56s-33.5 -23 -55.5 -23s-40.5 7.66699 -55.5 23
s-22.5 34 -22.5 56s7.5 40.667 22.5 56s33.5 23 55.5 23z" />
    <glyph glyph-name="multiply" unicode="&#xd7;" horiz-adv-x="600" 
d="M215 256l-171 171l84 85l172 -171l172 171l84 -85l-171 -171l171 -171l-84 -85l-172 171l-172 -171l-84 85z" />
    <glyph glyph-name="Oslash" unicode="&#xd8;" horiz-adv-x="741" 
d="M284 333l132 204.999c-14.667 26 -32 39 -52 39c-55.333 0 -83 -52 -83 -156c0 -11.333 0.166992 -26.666 0.5 -45.999s0.5 -33.333 0.5 -42h2zM454 378.999l-139 -217c16 -39.333 38 -59 66 -59c52 0 78 52 78 156c0 14 -1 54 -3 120h-2zM218 10.999l-64 -100h-143
l107 165c-64.667 63.333 -97 151.333 -97 264c0 107.333 30.667 193.666 92 258.999s147 98 257 98c50 0 95 -7 135 -21l47 72h138l-83 -130c74.667 -65.333 112 -158 112 -278c0 -107.333 -30.667 -193.666 -92 -258.999s-147 -98 -257 -98c-56 0 -106.667 9.33301 -152 28
z" />
    <glyph glyph-name="Ugrave" unicode="&#xd9;" horiz-adv-x="796" 
d="M75 261l0.00195312 257.005c0 24 -1.5 39.667 -4.5 47s-9.16699 14 -18.5 20c-2.66699 1.33301 -6.16699 3.33301 -10.5 6l-9 5.5c-1.66699 1 -3.83398 2.66699 -6.50098 5s-4.5 4.66602 -5.5 6.99902s-2 5.33301 -3 9s-1.5 7.83398 -1.5 12.501
c0 18 2.66699 31.333 8 40s15.333 13 30 13c10 0 30.5 -0.5 61.5 -1.5s55.833 -1.5 74.5 -1.5c17.333 0 43 0.5 77 1.5s59.333 1.5 76 1.5c24.667 0 40.5 -2.33301 47.5 -7s10.5 -17.667 10.5 -39c0 -4.66699 -0.166992 -8.83398 -0.5 -12.501s-0.833008 -7 -1.5 -10
s-1.66699 -5.66699 -3 -8s-2.33301 -4.33301 -3 -6s-2.33398 -3.33398 -5.00098 -5.00098l-5.5 -3.5c-1 -0.666992 -3.33301 -1.33398 -7 -2.00098s-6.16699 -1.16699 -7.5 -1.5s-4.33301 -1 -9 -2s-7.66699 -1.5 -9 -1.5c-6.66699 -1.33301 -12.167 -3.83301 -16.5 -7.5
s-8.16602 -12 -11.499 -25s-5 -31.167 -5 -54.5v-226c0 -98.667 46 -148 138 -148c24.667 0 44.667 2.66699 60 8s28 12.666 38 21.999s17.333 25 22 47s7.66699 45.333 9 70s2 59 2 103c0 80 -2.83301 134.5 -8.5 163.5s-17.834 44.833 -36.501 47.5
c-33.333 4.66699 -50 21 -50 49c0 20.667 3.16699 34 9.5 40s16.833 9 31.5 9c10.667 0 26.667 -0.5 48 -1.5s37.333 -1.5 48 -1.5s26.667 0.5 48 1.5s37.333 1.5 48 1.5c20 0 34.333 -2.66699 43 -8s13 -17.333 13 -36c0 -15.333 -1.83301 -26.833 -5.5 -34.5
s-7.5 -12.334 -11.5 -14.001s-10.667 -3.5 -20 -5.5c-18 -3.33301 -27 -25 -27 -65c0 -151.333 -3.33301 -264 -10 -338c-2.66699 -32.667 -10.5 -61 -23.5 -85s-28.833 -43.167 -47.5 -57.5s-41.5 -25.833 -68.5 -34.5s-54 -14.5 -81 -17.5s-57.167 -4.5 -90.5 -4.5
c-108.667 0 -189.167 20.167 -241.5 60.5s-78.5 112.833 -78.5 217.5zM497.002 730.005h-66l-129 72c-2 1.33301 -5.16699 3.33301 -9.5 6l-9 5.5c-1.66699 1 -4.33398 2.83301 -8.00098 5.5s-6.16699 4.66699 -7.5 6s-3.33301 3.16602 -6 5.49902s-4.5 4.33301 -5.5 6
s-2.5 3.83398 -4.5 6.50098s-3.16699 5.33398 -3.5 8.00098s-0.833008 5.66699 -1.5 9s-1 6.66602 -1 9.99902c0 18 5.66699 31.833 17 41.5s25 14.5 41 14.5c16.667 0 32.334 -5 47.001 -15s35 -32.333 61 -67z" />
    <glyph glyph-name="Uacute" unicode="&#xda;" horiz-adv-x="796" 
d="M75 261l0.00195312 257.005c0 24 -1.5 39.667 -4.5 47s-9.16699 14 -18.5 20c-2.66699 1.33301 -6.16699 3.33301 -10.5 6l-9 5.5c-1.66699 1 -3.83398 2.66699 -6.50098 5s-4.5 4.66602 -5.5 6.99902s-2 5.33301 -3 9s-1.5 7.83398 -1.5 12.501
c0 18 2.66699 31.333 8 40s15.333 13 30 13c10 0 30.5 -0.5 61.5 -1.5s55.833 -1.5 74.5 -1.5c17.333 0 43 0.5 77 1.5s59.333 1.5 76 1.5c24.667 0 40.5 -2.33301 47.5 -7s10.5 -17.667 10.5 -39c0 -4.66699 -0.166992 -8.83398 -0.5 -12.501s-0.833008 -7 -1.5 -10
s-1.66699 -5.66699 -3 -8s-2.33301 -4.33301 -3 -6s-2.33398 -3.33398 -5.00098 -5.00098l-5.5 -3.5c-1 -0.666992 -3.33301 -1.33398 -7 -2.00098s-6.16699 -1.16699 -7.5 -1.5s-4.33301 -1 -9 -2s-7.66699 -1.5 -9 -1.5c-6.66699 -1.33301 -12.167 -3.83301 -16.5 -7.5
s-8.16602 -12 -11.499 -25s-5 -31.167 -5 -54.5v-226c0 -98.667 46 -148 138 -148c24.667 0 44.667 2.66699 60 8s28 12.666 38 21.999s17.333 25 22 47s7.66699 45.333 9 70s2 59 2 103c0 80 -2.83301 134.5 -8.5 163.5s-17.834 44.833 -36.501 47.5
c-33.333 4.66699 -50 21 -50 49c0 20.667 3.16699 34 9.5 40s16.833 9 31.5 9c10.667 0 26.667 -0.5 48 -1.5s37.333 -1.5 48 -1.5s26.667 0.5 48 1.5s37.333 1.5 48 1.5c20 0 34.333 -2.66699 43 -8s13 -17.333 13 -36c0 -15.333 -1.83301 -26.833 -5.5 -34.5
s-7.5 -12.334 -11.5 -14.001s-10.667 -3.5 -20 -5.5c-18 -3.33301 -27 -25 -27 -65c0 -151.333 -3.33301 -264 -10 -338c-2.66699 -32.667 -10.5 -61 -23.5 -85s-28.833 -43.167 -47.5 -57.5s-41.5 -25.833 -68.5 -34.5s-54 -14.5 -81 -17.5s-57.167 -4.5 -90.5 -4.5
c-108.667 0 -189.167 20.167 -241.5 60.5s-78.5 112.833 -78.5 217.5zM328.002 730.005l85.001 114.002l12 16c6 8 10.167 13.667 12.5 17s6.5 8.16602 12.5 14.499s11 11 15 14s9.16699 6.5 15.5 10.5s12.833 6.66699 19.5 8s13.667 2 21 2c16 0 29.667 -4.83301 41 -14.5
s17 -23.5 17 -41.5c0 -4 -0.166992 -7.66699 -0.5 -11s-1.33301 -6.66602 -3 -9.99902s-2.83398 -6 -3.50098 -8s-2.5 -4.5 -5.5 -7.5l-6.5 -6.5c-1.33301 -1.33301 -4 -3.5 -8 -6.5s-6.66699 -4.83301 -8 -5.5s-4.83301 -2.83398 -10.5 -6.50098
s-9.16699 -5.83398 -10.5 -6.50098l-129 -72h-66z" />
    <glyph glyph-name="Ucircumflex" unicode="&#xdb;" horiz-adv-x="796" 
d="M75 261l0.00195312 257.005c0 24 -1.5 39.667 -4.5 47s-9.16699 14 -18.5 20c-2.66699 1.33301 -6.16699 3.33301 -10.5 6l-9 5.5c-1.66699 1 -3.83398 2.66699 -6.50098 5s-4.5 4.66602 -5.5 6.99902s-2 5.33301 -3 9s-1.5 7.83398 -1.5 12.501
c0 18 2.66699 31.333 8 40s15.333 13 30 13c10 0 30.5 -0.5 61.5 -1.5s55.833 -1.5 74.5 -1.5c17.333 0 43 0.5 77 1.5s59.333 1.5 76 1.5c24.667 0 40.5 -2.33301 47.5 -7s10.5 -17.667 10.5 -39c0 -4.66699 -0.166992 -8.83398 -0.5 -12.501s-0.833008 -7 -1.5 -10
s-1.66699 -5.66699 -3 -8s-2.33301 -4.33301 -3 -6s-2.33398 -3.33398 -5.00098 -5.00098l-5.5 -3.5c-1 -0.666992 -3.33301 -1.33398 -7 -2.00098s-6.16699 -1.16699 -7.5 -1.5s-4.33301 -1 -9 -2s-7.66699 -1.5 -9 -1.5c-6.66699 -1.33301 -12.167 -3.83301 -16.5 -7.5
s-8.16602 -12 -11.499 -25s-5 -31.167 -5 -54.5v-226c0 -98.667 46 -148 138 -148c24.667 0 44.667 2.66699 60 8s28 12.666 38 21.999s17.333 25 22 47s7.66699 45.333 9 70s2 59 2 103c0 80 -2.83301 134.5 -8.5 163.5s-17.834 44.833 -36.501 47.5
c-33.333 4.66699 -50 21 -50 49c0 20.667 3.16699 34 9.5 40s16.833 9 31.5 9c10.667 0 26.667 -0.5 48 -1.5s37.333 -1.5 48 -1.5s26.667 0.5 48 1.5s37.333 1.5 48 1.5c20 0 34.333 -2.66699 43 -8s13 -17.333 13 -36c0 -15.333 -1.83301 -26.833 -5.5 -34.5
s-7.5 -12.334 -11.5 -14.001s-10.667 -3.5 -20 -5.5c-18 -3.33301 -27 -25 -27 -65c0 -151.333 -3.33301 -264 -10 -338c-2.66699 -32.667 -10.5 -61 -23.5 -85s-28.833 -43.167 -47.5 -57.5s-41.5 -25.833 -68.5 -34.5s-54 -14.5 -81 -17.5s-57.167 -4.5 -90.5 -4.5
c-108.667 0 -189.167 20.167 -241.5 60.5s-78.5 112.833 -78.5 217.5zM413.002 820.005l-107 -90h-78l122 180h125l123 -180h-78z" />
    <glyph glyph-name="Udieresis" unicode="&#xdc;" horiz-adv-x="796" 
d="M75 261l0.00195312 257.005c0 24 -1.5 39.667 -4.5 47s-9.16699 14 -18.5 20c-2.66699 1.33301 -6.16699 3.33301 -10.5 6l-9 5.5c-1.66699 1 -3.83398 2.66699 -6.50098 5s-4.5 4.66602 -5.5 6.99902s-2 5.33301 -3 9s-1.5 7.83398 -1.5 12.501
c0 18 2.66699 31.333 8 40s15.333 13 30 13c10 0 30.5 -0.5 61.5 -1.5s55.833 -1.5 74.5 -1.5c17.333 0 43 0.5 77 1.5s59.333 1.5 76 1.5c24.667 0 40.5 -2.33301 47.5 -7s10.5 -17.667 10.5 -39c0 -4.66699 -0.166992 -8.83398 -0.5 -12.501s-0.833008 -7 -1.5 -10
s-1.66699 -5.66699 -3 -8s-2.33301 -4.33301 -3 -6s-2.33398 -3.33398 -5.00098 -5.00098l-5.5 -3.5c-1 -0.666992 -3.33301 -1.33398 -7 -2.00098s-6.16699 -1.16699 -7.5 -1.5s-4.33301 -1 -9 -2s-7.66699 -1.5 -9 -1.5c-6.66699 -1.33301 -12.167 -3.83301 -16.5 -7.5
s-8.16602 -12 -11.499 -25s-5 -31.167 -5 -54.5v-226c0 -98.667 46 -148 138 -148c24.667 0 44.667 2.66699 60 8s28 12.666 38 21.999s17.333 25 22 47s7.66699 45.333 9 70s2 59 2 103c0 80 -2.83301 134.5 -8.5 163.5s-17.834 44.833 -36.501 47.5
c-33.333 4.66699 -50 21 -50 49c0 20.667 3.16699 34 9.5 40s16.833 9 31.5 9c10.667 0 26.667 -0.5 48 -1.5s37.333 -1.5 48 -1.5s26.667 0.5 48 1.5s37.333 1.5 48 1.5c20 0 34.333 -2.66699 43 -8s13 -17.333 13 -36c0 -15.333 -1.83301 -26.833 -5.5 -34.5
s-7.5 -12.334 -11.5 -14.001s-10.667 -3.5 -20 -5.5c-18 -3.33301 -27 -25 -27 -65c0 -151.333 -3.33301 -264 -10 -338c-2.66699 -32.667 -10.5 -61 -23.5 -85s-28.833 -43.167 -47.5 -57.5s-41.5 -25.833 -68.5 -34.5s-54 -14.5 -81 -17.5s-57.167 -4.5 -90.5 -4.5
c-108.667 0 -189.167 20.167 -241.5 60.5s-78.5 112.833 -78.5 217.5zM303.002 892.005c22 0 40.5 -7.66699 55.5 -23s22.5 -34 22.5 -56s-7.5 -40.667 -22.5 -56s-33.5 -23 -55.5 -23s-40.5 7.66699 -55.5 23s-22.5 34 -22.5 56s7.5 40.667 22.5 56s33.5 23 55.5 23z
M522.002 892.005c22 0 40.5 -7.66699 55.5 -23s22.5 -34 22.5 -56s-7.5 -40.667 -22.5 -56s-33.5 -23 -55.5 -23s-40.5 7.66699 -55.5 23s-22.5 34 -22.5 56s7.5 40.667 22.5 56s33.5 23 55.5 23z" />
    <glyph glyph-name="Yacute" unicode="&#xdd;" horiz-adv-x="704" 
d="M635 549l-145 -182.997c-2 -2 -5 -5.5 -9 -10.5s-7 -9 -9 -12l-7.5 -11c-3 -4.33301 -5 -9 -6 -14s-1.5 -10.167 -1.5 -15.5v-154c0 -14 7.83301 -25.833 23.5 -35.5s31.167 -15.834 46.5 -18.501c10 -2 17 -3.66699 21 -5s7.66699 -5.5 11 -12.5s5 -17.167 5 -30.5
c0 -33.333 -19.667 -50 -59 -50c-18 0 -45.167 0.5 -81.5 1.5s-63.5 1.5 -81.5 1.5s-45.167 -0.5 -81.5 -1.5s-63.5 -1.5 -81.5 -1.5c-22.667 0 -38.334 4 -47.001 12s-13 20.667 -13 38c0 12.667 3.33301 22.334 10 29.001s18 13 34 19c24.667 8.66699 39.334 16 44.001 22
c5.33301 7.33301 8 18 8 32v121c0 18 -3.33301 33 -10 45l-106 184c-13.333 23.333 -22.833 39.166 -28.5 47.499s-12.5 16.333 -20.5 24s-17 12.5 -27 14.5c-16 3.33301 -26.167 8 -30.5 14s-6.5 16.333 -6.5 31c0 18.667 2 32.167 6 40.5s12 12.5 24 12.5
c18 0 44.333 -0.5 79 -1.5s60.667 -1.5 78 -1.5c18 0 44.333 0.5 79 1.5s60.667 1.5 78 1.5c22.667 0 37.834 -3.33301 45.501 -10s11.5 -17.667 11.5 -33c0 -16.667 -4.16699 -29.167 -12.5 -37.5s-16.5 -14.5 -24.5 -18.5s-12 -9.33301 -12 -16
c0 -7.33301 10 -26.333 30 -57s33 -46 39 -46c8 0 19.667 10.333 35 31c28.667 38.667 43 62 43 70s-3.5 14.5 -10.5 19.5s-14 10.833 -21 17.5s-10.5 16 -10.5 28c0 11.333 0.666992 20.166 2 26.499s4.66602 12.166 9.99902 17.499s13.333 8 24 8
c11.333 0 28.5 -0.5 51.5 -1.5s40.167 -1.5 51.5 -1.5s28.5 0.5 51.5 1.5s40.167 1.5 51.5 1.5c21.333 0 32 -14 32 -42c0 -16 -2.33301 -28.167 -7 -36.5s-14 -14.833 -28 -19.5c-16 -5.33301 -31.667 -17.333 -47 -36zM256 730.003l85.001 114.002l12 16
c6 8 10.167 13.667 12.5 17s6.5 8.16602 12.5 14.499s11 11 15 14s9.16699 6.5 15.5 10.5s12.833 6.66699 19.5 8s13.667 2 21 2c16 0 29.667 -4.83301 41 -14.5s17 -23.5 17 -41.5c0 -4 -0.166992 -7.66699 -0.5 -11s-1.33301 -6.66602 -3 -9.99902
s-2.83398 -6 -3.50098 -8s-2.5 -4.5 -5.5 -7.5l-6.5 -6.5c-1.33301 -1.33301 -4 -3.5 -8 -6.5s-6.66699 -4.83301 -8 -5.5s-4.83301 -2.83398 -10.5 -6.50098s-9.16699 -5.83398 -10.5 -6.50098l-129 -72h-66z" />
    <glyph glyph-name="Thorn" unicode="&#xde;" horiz-adv-x="704" 
d="M80 342l0.00976562 177.003c0 16 -0.833008 28.5 -2.5 37.5s-3.33398 14.5 -5.00098 16.5s-5.33398 4.16699 -11.001 6.5s-9.83398 4.16602 -12.501 5.49902c-19.333 10.667 -29 29.667 -29 57s10 41 30 41c14 0 37 -0.5 69 -1.5s56.667 -1.5 74 -1.5
c16.667 0 41.334 0.5 74.001 1.5s57 1.5 73 1.5c19.333 0 32.5 -2.83301 39.5 -8.5s10.5 -17.834 10.5 -36.501c0 -25.333 -11.333 -43 -34 -53c-0.666992 -0.666992 -3 -1.66699 -7 -3s-6.83301 -2.5 -8.5 -3.5s-3.83398 -2.5 -6.50098 -4.5s-4.66699 -4.5 -6 -7.5
s-2 -6.83301 -2 -11.5c41.333 1.33301 71.666 2 90.999 2c72 0 133.333 -23.5 184 -70.5s76 -103.5 76 -169.5c-2 -123.333 -83 -185 -243 -185c-10.667 0 -45.334 1.66699 -104.001 5c4.66699 -18 17.667 -32 39 -42c1.33301 -0.666992 3.33301 -1.5 6 -2.5l6.5 -2.5
c1.66699 -0.666992 3.5 -1.83398 5.5 -3.50098s3.66699 -3.5 5 -5.5s2.5 -4.5 3.5 -7.5s1.5 -6.5 1.5 -10.5c0 -44 -15 -66 -45 -66c-16.667 0 -41.834 0.5 -75.501 1.5s-58.834 1.5 -75.501 1.5s-41.834 -0.5 -75.501 -1.5s-58.834 -1.5 -75.501 -1.5
c-15.333 0 -25.833 4.16699 -31.5 12.5s-8.5 20.833 -8.5 37.5c0 13.333 2.66699 23 8 29s15 12.333 29 19c13.333 7.33301 22.166 26.333 26.499 57s6.5 94 6.5 190zM435.01 337.003c0 27.333 -8.49902 51.668 -25.499 73.001s-38.833 32 -65.5 32
c-10.667 0 -17 -4.33301 -19 -13s-3 -32.334 -3 -71.001c0 -50.667 1.66699 -81 5 -91s12.666 -15 27.999 -15c53.333 0 80 28.333 80 85z" />
    <glyph glyph-name="germandbls" unicode="&#xdf;" horiz-adv-x="685" 
d="M75 450c0 83.333 28.168 149.167 84.501 197.5s124.166 72.5 203.499 72.5c50.667 0 96.167 -13.333 136.5 -40s60.5 -63.667 60.5 -111c0 -33.333 -12.667 -64 -38 -92c-4.66699 -5.33301 -10.5 -11.166 -17.5 -17.499s-12.167 -11.333 -15.5 -15
s-5 -6.83398 -5 -9.50098c0 -7.33301 9 -21.333 27 -42l59.5 -65.5c21.667 -23 41.5 -50.167 59.5 -81.5s27 -60 27 -86c0 -47.333 -20.833 -87.5 -62.5 -120.5s-85.167 -49.5 -130.5 -49.5c-46 0 -69 17.333 -69 52c0 18 7.16699 36.5 21.5 55.5s21.5 37.833 21.5 56.5
c0 22 -17.667 65.167 -53 129.5s-53 107.833 -53 130.5c0 14.667 2.5 27.667 7.5 39s10.333 19.666 16 24.999s13.5 11.666 23.5 18.999c11.333 8 19.166 14 23.499 18s9.16602 11 14.499 21s8 21.333 8 34c0 16 -4.16699 28.5 -12.5 37.5s-20.166 13.5 -35.499 13.5
c-16.667 0 -30.667 -4.66699 -42 -14s-19.666 -21.833 -24.999 -37.5s-9 -30.5 -11 -44.5s-3 -29 -3 -45v-254c0 -62.667 1.66699 -100 5 -112c2.66699 -9.33301 13.667 -19.666 33 -30.999c18 -10 27 -22.667 27 -38c0 -18 -2.5 -30.5 -7.5 -37.5
s-15.833 -10.5 -32.5 -10.5c-15.333 0 -38 0.5 -68 1.5s-52.333 1.5 -67 1.5c-15.333 0 -37.833 -0.5 -67.5 -1.5s-52.167 -1.5 -67.5 -1.5s-25.833 2.5 -31.5 7.5s-8.5 15.167 -8.5 30.5c0 14 7.5 27.167 22.5 39.5s23.833 21.833 26.5 28.5
c10 22.667 15 138.334 15 347.001z" />
    <glyph glyph-name="agrave" unicode="&#xe0;" horiz-adv-x="630" 
d="M331 174l0.000976562 47.001c-21.333 0 -40 -5.83301 -56 -17.5s-24 -29.834 -24 -54.501c0 -9.33301 2.66699 -17 8 -23s12.666 -9 21.999 -9c18 0 30.833 6 38.5 18s11.5 25 11.5 39zM172.001 273.001l140.002 41.9951c11.333 4 17 7.33301 17 10
c0 0.666992 0.333008 7.33398 1 20.001s1 23.667 1 33c0 18.667 -4.33301 31.167 -13 37.5s-26.334 9.5 -53.001 9.5c-36.667 0 -71 -18 -103 -54c-3.33301 -3.33301 -8 -8.66602 -14 -15.999s-10.5 -12.666 -13.5 -15.999s-7 -7.16602 -12 -11.499s-9.5 -7.33301 -13.5 -9
s-8 -2.5 -12 -2.5c-16.667 0 -28.5 8.5 -35.5 25.5s-10.5 34.833 -10.5 53.5c0 25.333 10.5 47.166 31.5 65.499s47.667 31.666 80 39.999s62.166 14.166 89.499 17.499s53 5 77 5c36 0 66.333 -2 91 -6s47.667 -11.833 69 -23.5s37.166 -29 47.499 -52
s15.5 -52.167 15.5 -87.5c0 -20 -1.16699 -50.667 -3.5 -92s-3.5 -72 -3.5 -92c0 -14 1.83301 -23.833 5.5 -29.5s11.167 -8.5 22.5 -8.5c4 0 9.33301 1.16699 16 3.5s11.667 3.5 15 3.5c9.33301 0 14 -6.33301 14 -19c0 -23.333 -7.33301 -44 -22 -62
s-33.5 -31.667 -56.5 -41s-46 -16.166 -69 -20.499s-45.167 -6.5 -66.5 -6.5c-20 0 -35.667 3.66699 -47 11s-20.666 20 -27.999 38c-62 -32.667 -119.333 -49 -172 -49c-40.667 0 -72 10.333 -94 31s-33 51.334 -33 92.001c0 42.667 11.5 76.334 34.5 101.001
s58.833 44.334 107.5 59.001zM400.003 585.996h-66l-129 72c-2 1.33301 -5.16699 3.33301 -9.5 6l-9 5.5c-1.66699 1 -4.33398 2.83301 -8.00098 5.5s-6.16699 4.66699 -7.5 6s-3.33301 3.16602 -6 5.49902s-4.5 4.33301 -5.5 6s-2.5 3.83398 -4.5 6.50098
s-3.16699 5.33398 -3.5 8.00098s-0.833008 5.66699 -1.5 9s-1 6.66602 -1 9.99902c0 18 5.66699 31.833 17 41.5s25 14.5 41 14.5c16.667 0 32.334 -5 47.001 -15s35 -32.333 61 -67z" />
    <glyph glyph-name="aacute" unicode="&#xe1;" horiz-adv-x="630" 
d="M331 174l0.000976562 47.001c-21.333 0 -40 -5.83301 -56 -17.5s-24 -29.834 -24 -54.501c0 -9.33301 2.66699 -17 8 -23s12.666 -9 21.999 -9c18 0 30.833 6 38.5 18s11.5 25 11.5 39zM172.001 273.001l140.002 41.9951c11.333 4 17 7.33301 17 10
c0 0.666992 0.333008 7.33398 1 20.001s1 23.667 1 33c0 18.667 -4.33301 31.167 -13 37.5s-26.334 9.5 -53.001 9.5c-36.667 0 -71 -18 -103 -54c-3.33301 -3.33301 -8 -8.66602 -14 -15.999s-10.5 -12.666 -13.5 -15.999s-7 -7.16602 -12 -11.499s-9.5 -7.33301 -13.5 -9
s-8 -2.5 -12 -2.5c-16.667 0 -28.5 8.5 -35.5 25.5s-10.5 34.833 -10.5 53.5c0 25.333 10.5 47.166 31.5 65.499s47.667 31.666 80 39.999s62.166 14.166 89.499 17.499s53 5 77 5c36 0 66.333 -2 91 -6s47.667 -11.833 69 -23.5s37.166 -29 47.499 -52
s15.5 -52.167 15.5 -87.5c0 -20 -1.16699 -50.667 -3.5 -92s-3.5 -72 -3.5 -92c0 -14 1.83301 -23.833 5.5 -29.5s11.167 -8.5 22.5 -8.5c4 0 9.33301 1.16699 16 3.5s11.667 3.5 15 3.5c9.33301 0 14 -6.33301 14 -19c0 -23.333 -7.33301 -44 -22 -62
s-33.5 -31.667 -56.5 -41s-46 -16.166 -69 -20.499s-45.167 -6.5 -66.5 -6.5c-20 0 -35.667 3.66699 -47 11s-20.666 20 -27.999 38c-62 -32.667 -119.333 -49 -172 -49c-40.667 0 -72 10.333 -94 31s-33 51.334 -33 92.001c0 42.667 11.5 76.334 34.5 101.001
s58.833 44.334 107.5 59.001zM231.003 585.996l85.001 114.002l12 16c6 8 10.167 13.667 12.5 17s6.5 8.16602 12.5 14.499s11 11 15 14s9.16699 6.5 15.5 10.5s12.833 6.66699 19.5 8s13.667 2 21 2c16 0 29.667 -4.83301 41 -14.5s17 -23.5 17 -41.5
c0 -4 -0.166992 -7.66699 -0.5 -11s-1.33301 -6.66602 -3 -9.99902s-2.83398 -6 -3.50098 -8s-2.5 -4.5 -5.5 -7.5l-6.5 -6.5c-1.33301 -1.33301 -4 -3.5 -8 -6.5s-6.66699 -4.83301 -8 -5.5s-4.83301 -2.83398 -10.5 -6.50098s-9.16699 -5.83398 -10.5 -6.50098l-129 -72
h-66z" />
    <glyph glyph-name="acircumflex" unicode="&#xe2;" horiz-adv-x="630" 
d="M331 174l0.000976562 47.001c-21.333 0 -40 -5.83301 -56 -17.5s-24 -29.834 -24 -54.501c0 -9.33301 2.66699 -17 8 -23s12.666 -9 21.999 -9c18 0 30.833 6 38.5 18s11.5 25 11.5 39zM172.001 273.001l140.002 41.9951c11.333 4 17 7.33301 17 10
c0 0.666992 0.333008 7.33398 1 20.001s1 23.667 1 33c0 18.667 -4.33301 31.167 -13 37.5s-26.334 9.5 -53.001 9.5c-36.667 0 -71 -18 -103 -54c-3.33301 -3.33301 -8 -8.66602 -14 -15.999s-10.5 -12.666 -13.5 -15.999s-7 -7.16602 -12 -11.499s-9.5 -7.33301 -13.5 -9
s-8 -2.5 -12 -2.5c-16.667 0 -28.5 8.5 -35.5 25.5s-10.5 34.833 -10.5 53.5c0 25.333 10.5 47.166 31.5 65.499s47.667 31.666 80 39.999s62.166 14.166 89.499 17.499s53 5 77 5c36 0 66.333 -2 91 -6s47.667 -11.833 69 -23.5s37.166 -29 47.499 -52
s15.5 -52.167 15.5 -87.5c0 -20 -1.16699 -50.667 -3.5 -92s-3.5 -72 -3.5 -92c0 -14 1.83301 -23.833 5.5 -29.5s11.167 -8.5 22.5 -8.5c4 0 9.33301 1.16699 16 3.5s11.667 3.5 15 3.5c9.33301 0 14 -6.33301 14 -19c0 -23.333 -7.33301 -44 -22 -62
s-33.5 -31.667 -56.5 -41s-46 -16.166 -69 -20.499s-45.167 -6.5 -66.5 -6.5c-20 0 -35.667 3.66699 -47 11s-20.666 20 -27.999 38c-62 -32.667 -119.333 -49 -172 -49c-40.667 0 -72 10.333 -94 31s-33 51.334 -33 92.001c0 42.667 11.5 76.334 34.5 101.001
s58.833 44.334 107.5 59.001zM316.003 675.996l-107 -90h-78l122 180h125l123 -180h-78z" />
    <glyph glyph-name="atilde" unicode="&#xe3;" horiz-adv-x="630" 
d="M331 174l0.000976562 47.001c-21.333 0 -40 -5.83301 -56 -17.5s-24 -29.834 -24 -54.501c0 -9.33301 2.66699 -17 8 -23s12.666 -9 21.999 -9c18 0 30.833 6 38.5 18s11.5 25 11.5 39zM172.001 273.001l140.002 41.9951c11.333 4 17 7.33301 17 10
c0 0.666992 0.333008 7.33398 1 20.001s1 23.667 1 33c0 18.667 -4.33301 31.167 -13 37.5s-26.334 9.5 -53.001 9.5c-36.667 0 -71 -18 -103 -54c-3.33301 -3.33301 -8 -8.66602 -14 -15.999s-10.5 -12.666 -13.5 -15.999s-7 -7.16602 -12 -11.499s-9.5 -7.33301 -13.5 -9
s-8 -2.5 -12 -2.5c-16.667 0 -28.5 8.5 -35.5 25.5s-10.5 34.833 -10.5 53.5c0 25.333 10.5 47.166 31.5 65.499s47.667 31.666 80 39.999s62.166 14.166 89.499 17.499s53 5 77 5c36 0 66.333 -2 91 -6s47.667 -11.833 69 -23.5s37.166 -29 47.499 -52
s15.5 -52.167 15.5 -87.5c0 -20 -1.16699 -50.667 -3.5 -92s-3.5 -72 -3.5 -92c0 -14 1.83301 -23.833 5.5 -29.5s11.167 -8.5 22.5 -8.5c4 0 9.33301 1.16699 16 3.5s11.667 3.5 15 3.5c9.33301 0 14 -6.33301 14 -19c0 -23.333 -7.33301 -44 -22 -62
s-33.5 -31.667 -56.5 -41s-46 -16.166 -69 -20.499s-45.167 -6.5 -66.5 -6.5c-20 0 -35.667 3.66699 -47 11s-20.666 20 -27.999 38c-62 -32.667 -119.333 -49 -172 -49c-40.667 0 -72 10.333 -94 31s-33 51.334 -33 92.001c0 42.667 11.5 76.334 34.5 101.001
s58.833 44.334 107.5 59.001zM460.003 746.996h55.001c-20.667 -97.333 -62.667 -146 -126 -146c-28.667 0 -61.667 9 -99 27c-38.667 17.333 -63 26 -73 26c-12.667 0 -23.334 -4.83301 -32.001 -14.5s-13.667 -21.167 -15 -34.5h-52c12 97.333 56.333 146 133 146
c20 0 48.667 -8.66699 86 -26c40 -18.667 65 -28 75 -28c24 0 40 16.667 48 50z" />
    <glyph glyph-name="adieresis" unicode="&#xe4;" horiz-adv-x="630" 
d="M331 174l0.000976562 47.001c-21.333 0 -40 -5.83301 -56 -17.5s-24 -29.834 -24 -54.501c0 -9.33301 2.66699 -17 8 -23s12.666 -9 21.999 -9c18 0 30.833 6 38.5 18s11.5 25 11.5 39zM172.001 273.001l140.002 41.9951c11.333 4 17 7.33301 17 10
c0 0.666992 0.333008 7.33398 1 20.001s1 23.667 1 33c0 18.667 -4.33301 31.167 -13 37.5s-26.334 9.5 -53.001 9.5c-36.667 0 -71 -18 -103 -54c-3.33301 -3.33301 -8 -8.66602 -14 -15.999s-10.5 -12.666 -13.5 -15.999s-7 -7.16602 -12 -11.499s-9.5 -7.33301 -13.5 -9
s-8 -2.5 -12 -2.5c-16.667 0 -28.5 8.5 -35.5 25.5s-10.5 34.833 -10.5 53.5c0 25.333 10.5 47.166 31.5 65.499s47.667 31.666 80 39.999s62.166 14.166 89.499 17.499s53 5 77 5c36 0 66.333 -2 91 -6s47.667 -11.833 69 -23.5s37.166 -29 47.499 -52
s15.5 -52.167 15.5 -87.5c0 -20 -1.16699 -50.667 -3.5 -92s-3.5 -72 -3.5 -92c0 -14 1.83301 -23.833 5.5 -29.5s11.167 -8.5 22.5 -8.5c4 0 9.33301 1.16699 16 3.5s11.667 3.5 15 3.5c9.33301 0 14 -6.33301 14 -19c0 -23.333 -7.33301 -44 -22 -62
s-33.5 -31.667 -56.5 -41s-46 -16.166 -69 -20.499s-45.167 -6.5 -66.5 -6.5c-20 0 -35.667 3.66699 -47 11s-20.666 20 -27.999 38c-62 -32.667 -119.333 -49 -172 -49c-40.667 0 -72 10.333 -94 31s-33 51.334 -33 92.001c0 42.667 11.5 76.334 34.5 101.001
s58.833 44.334 107.5 59.001zM206.003 747.996c22 0 40.5 -7.66699 55.5 -23s22.5 -34 22.5 -56s-7.5 -40.667 -22.5 -56s-33.5 -23 -55.5 -23s-40.5 7.66699 -55.5 23s-22.5 34 -22.5 56s7.5 40.667 22.5 56s33.5 23 55.5 23zM425.003 747.996c22 0 40.5 -7.66699 55.5 -23
s22.5 -34 22.5 -56s-7.5 -40.667 -22.5 -56s-33.5 -23 -55.5 -23s-40.5 7.66699 -55.5 23s-22.5 34 -22.5 56s7.5 40.667 22.5 56s33.5 23 55.5 23z" />
    <glyph glyph-name="aring" unicode="&#xe5;" horiz-adv-x="630" 
d="M331 174l0.000976562 47.001c-21.333 0 -40 -5.83301 -56 -17.5s-24 -29.834 -24 -54.501c0 -9.33301 2.66699 -17 8 -23s12.666 -9 21.999 -9c18 0 30.833 6 38.5 18s11.5 25 11.5 39zM172.001 273.001l140.002 41.9951c11.333 4 17 7.33301 17 10
c0 0.666992 0.333008 7.33398 1 20.001s1 23.667 1 33c0 18.667 -4.33301 31.167 -13 37.5s-26.334 9.5 -53.001 9.5c-36.667 0 -71 -18 -103 -54c-3.33301 -3.33301 -8 -8.66602 -14 -15.999s-10.5 -12.666 -13.5 -15.999s-7 -7.16602 -12 -11.499s-9.5 -7.33301 -13.5 -9
s-8 -2.5 -12 -2.5c-16.667 0 -28.5 8.5 -35.5 25.5s-10.5 34.833 -10.5 53.5c0 25.333 10.5 47.166 31.5 65.499s47.667 31.666 80 39.999s62.166 14.166 89.499 17.499s53 5 77 5c36 0 66.333 -2 91 -6s47.667 -11.833 69 -23.5s37.166 -29 47.499 -52
s15.5 -52.167 15.5 -87.5c0 -20 -1.16699 -50.667 -3.5 -92s-3.5 -72 -3.5 -92c0 -14 1.83301 -23.833 5.5 -29.5s11.167 -8.5 22.5 -8.5c4 0 9.33301 1.16699 16 3.5s11.667 3.5 15 3.5c9.33301 0 14 -6.33301 14 -19c0 -23.333 -7.33301 -44 -22 -62
s-33.5 -31.667 -56.5 -41s-46 -16.166 -69 -20.499s-45.167 -6.5 -66.5 -6.5c-20 0 -35.667 3.66699 -47 11s-20.666 20 -27.999 38c-62 -32.667 -119.333 -49 -172 -49c-40.667 0 -72 10.333 -94 31s-33 51.334 -33 92.001c0 42.667 11.5 76.334 34.5 101.001
s58.833 44.334 107.5 59.001zM315.003 809.996c32 0 58.667 -11 80 -33s32 -48.333 32 -79s-10.667 -57 -32 -79s-48 -33 -80 -33s-58.667 11 -80 33s-32 48.333 -32 79s10.667 57 32 79s48 33 80 33zM315.003 749.996c-14 0 -26.167 -5.16699 -36.5 -15.5
s-15.5 -22.5 -15.5 -36.5s5.16699 -26.167 15.5 -36.5s22.5 -15.5 36.5 -15.5s26.167 5.16699 36.5 15.5s15.5 22.5 15.5 36.5s-5.16699 26.167 -15.5 36.5s-22.5 15.5 -36.5 15.5z" />
    <glyph glyph-name="ae" unicode="&#xe6;" horiz-adv-x="889" 
d="M337 164v55c-53.333 0 -80 -19.333 -80 -58c0 -28 13 -42 39 -42c12 0 21.833 4.5 29.5 13.5s11.5 19.5 11.5 31.5zM672 367c0 39.333 -18.333 59 -55 59c-18 0 -32.333 -6.16699 -43 -18.5s-16 -27.833 -16 -46.5c0 -13.333 3.16699 -22 9.5 -26s21.833 -6 46.5 -6
c20.667 0 35.5 2.16699 44.5 6.5s13.5 14.833 13.5 31.5zM819 264l-261 -22.9941c0 -34 12.833 -63.667 38.5 -89s55.5 -38 89.5 -38c20.667 0 45.167 5.66699 73.5 17s44.5 17 48.5 17c12 0 18 -9 18 -27c0 -34.667 -21.667 -65.167 -65 -91.5
s-89.666 -39.5 -138.999 -39.5c-41.333 0 -78.666 11 -111.999 33c-66 -22 -104 -33 -114 -33c-23.333 0 -43 17.333 -59 52c-69.333 -34.667 -125.333 -52 -168 -52c-84 0 -126 39.667 -126 119c0 19.333 2.5 37 7.5 53s11 29.667 18 41s17.167 22 30.5 32
s25.166 17.833 35.499 23.5s24.5 11.5 42.5 17.5s31.833 10.333 41.5 13s24 6.16699 43 10.5s31.833 7.16602 38.5 8.49902c11.333 2.66699 19 5 23 7s7.33301 5.83301 10 11.5s4 14.5 4 26.5c0 26.667 -4.33301 45.334 -13 56.001s-26 16 -52 16
c-20.667 0 -40.167 -5.83301 -58.5 -17.5s-32.833 -24.5 -43.5 -38.5s-21.334 -26.833 -32.001 -38.5s-19.334 -17.5 -26.001 -17.5c-16 0 -28 7.66699 -36 23s-12 31.666 -12 48.999c0 27.333 9.33301 50.666 28 69.999s42.667 33.666 72 42.999s57.5 15.833 84.5 19.5
s53.5 5.5 79.5 5.5c27.333 0 51.333 -1.83301 72 -5.5s35.334 -7.33398 44.001 -11.001s22 -9.83398 40 -18.501c50 23.333 95 35 135 35c58 0 112.333 -19.167 163 -57.5s76 -85.833 76 -142.5c0 -36.667 -13 -56.334 -39 -59.001z" />
    <glyph glyph-name="ccedilla" unicode="&#xe7;" horiz-adv-x="537" 
d="M212 -98l40.9971 88.001h-1c-149.333 0 -224 83.667 -224 251c0 81.333 23.5 148.666 70.5 201.999s115.167 80 204.5 80c50.667 0 93.834 -7 129.501 -21s53.5 -38 53.5 -72c0 -25.333 -4.66699 -47 -14 -65s-23.666 -27 -42.999 -27
c-18.667 0 -36.167 7.33301 -52.5 22l-46.5 43.5c-14.667 14.333 -29 21.5 -43 21.5s-23.833 -8.5 -29.5 -25.5s-8.5 -34.833 -8.5 -53.5c0 -141.333 42.667 -212 128 -212c15.333 0 32.833 4.83301 52.5 14.5s32.5 14.5 38.5 14.5c18 0 27 -11.667 27 -35
c0 -33.333 -19.833 -61.833 -59.5 -85.5s-84.167 -39.5 -133.5 -47.5l-25 -56c12 3.33301 25.667 5 41 5c24 0 44.5 -6.16699 61.5 -18.5s25.5 -30.166 25.5 -53.499c0 -18.667 -5 -34.5 -15 -47.5s-23.167 -22.667 -39.5 -29s-32.5 -10.833 -48.5 -13.5s-32.667 -4 -50 -4
c-30.667 0 -61 6 -91 18l17 44c25.333 -9.33301 47.333 -14 66 -14c12.667 0 23.834 3.16699 33.501 9.5s14.5 15.5 14.5 27.5c0 9.33301 -3.5 17.666 -10.5 24.999s-15.167 11 -24.5 11c-12 0 -21.667 -2 -29 -6z" />
    <glyph glyph-name="egrave" unicode="&#xe8;" horiz-adv-x="556" 
d="M331 372c0 14.667 -4.66699 27.166 -14 37.499s-21.333 15.5 -36 15.5s-26 -6.33301 -34 -19s-12 -26.667 -12 -42c0 -26.667 6.66699 -40 20 -40c10.667 0 26 4.33301 46 13s30 20.334 30 35.001zM473 299.999l-218.001 -60.001c16.667 -78.667 56.667 -118 120 -118
c19.333 0 38.666 4.83301 57.999 14.5s35.666 19.334 48.999 29.001s22.333 14.5 27 14.5c10.667 0 16 -8.33301 16 -25c0 -32 -9 -59.5 -27 -82.5s-41.5 -40.167 -70.5 -51.5s-57.667 -19.333 -86 -24s-57.166 -7 -86.499 -7c-72.667 0 -129.167 22.5 -169.5 67.5
s-60.5 102.833 -60.5 173.5c0 76.667 27.5 144.5 82.5 203.5s120.5 88.5 196.5 88.5c32 0 60.833 -4.5 86.5 -13.5s46.334 -20.5 62.001 -34.5s28.834 -29.667 39.501 -47s18.167 -33.5 22.5 -48.5s6.5 -29.167 6.5 -42.5c0 -7.33301 -4.5 -14.5 -13.5 -21.5
s-20.5 -12.167 -34.5 -15.5zM376.999 585.998h-66l-129 72c-2 1.33301 -5.16699 3.33301 -9.5 6l-9 5.5c-1.66699 1 -4.33398 2.83301 -8.00098 5.5s-6.16699 4.66699 -7.5 6s-3.33301 3.16602 -6 5.49902s-4.5 4.33301 -5.5 6s-2.5 3.83398 -4.5 6.50098
s-3.16699 5.33398 -3.5 8.00098s-0.833008 5.66699 -1.5 9s-1 6.66602 -1 9.99902c0 18 5.66699 31.833 17 41.5s25 14.5 41 14.5c16.667 0 32.334 -5 47.001 -15s35 -32.333 61 -67z" />
    <glyph glyph-name="eacute" unicode="&#xe9;" horiz-adv-x="556" 
d="M331 372c0 14.667 -4.66699 27.166 -14 37.499s-21.333 15.5 -36 15.5s-26 -6.33301 -34 -19s-12 -26.667 -12 -42c0 -26.667 6.66699 -40 20 -40c10.667 0 26 4.33301 46 13s30 20.334 30 35.001zM473 299.999l-218.001 -60.001c16.667 -78.667 56.667 -118 120 -118
c19.333 0 38.666 4.83301 57.999 14.5s35.666 19.334 48.999 29.001s22.333 14.5 27 14.5c10.667 0 16 -8.33301 16 -25c0 -32 -9 -59.5 -27 -82.5s-41.5 -40.167 -70.5 -51.5s-57.667 -19.333 -86 -24s-57.166 -7 -86.499 -7c-72.667 0 -129.167 22.5 -169.5 67.5
s-60.5 102.833 -60.5 173.5c0 76.667 27.5 144.5 82.5 203.5s120.5 88.5 196.5 88.5c32 0 60.833 -4.5 86.5 -13.5s46.334 -20.5 62.001 -34.5s28.834 -29.667 39.501 -47s18.167 -33.5 22.5 -48.5s6.5 -29.167 6.5 -42.5c0 -7.33301 -4.5 -14.5 -13.5 -21.5
s-20.5 -12.167 -34.5 -15.5zM207.999 585.998l85.001 114.002l12 16c6 8 10.167 13.667 12.5 17s6.5 8.16602 12.5 14.499s11 11 15 14s9.16699 6.5 15.5 10.5s12.833 6.66699 19.5 8s13.667 2 21 2c16 0 29.667 -4.83301 41 -14.5s17 -23.5 17 -41.5
c0 -4 -0.166992 -7.66699 -0.5 -11s-1.33301 -6.66602 -3 -9.99902s-2.83398 -6 -3.50098 -8s-2.5 -4.5 -5.5 -7.5l-6.5 -6.5c-1.33301 -1.33301 -4 -3.5 -8 -6.5s-6.66699 -4.83301 -8 -5.5s-4.83301 -2.83398 -10.5 -6.50098s-9.16699 -5.83398 -10.5 -6.50098l-129 -72
h-66z" />
    <glyph glyph-name="ecircumflex" unicode="&#xea;" horiz-adv-x="556" 
d="M331 372c0 14.667 -4.66699 27.166 -14 37.499s-21.333 15.5 -36 15.5s-26 -6.33301 -34 -19s-12 -26.667 -12 -42c0 -26.667 6.66699 -40 20 -40c10.667 0 26 4.33301 46 13s30 20.334 30 35.001zM473 299.999l-218.001 -60.001c16.667 -78.667 56.667 -118 120 -118
c19.333 0 38.666 4.83301 57.999 14.5s35.666 19.334 48.999 29.001s22.333 14.5 27 14.5c10.667 0 16 -8.33301 16 -25c0 -32 -9 -59.5 -27 -82.5s-41.5 -40.167 -70.5 -51.5s-57.667 -19.333 -86 -24s-57.166 -7 -86.499 -7c-72.667 0 -129.167 22.5 -169.5 67.5
s-60.5 102.833 -60.5 173.5c0 76.667 27.5 144.5 82.5 203.5s120.5 88.5 196.5 88.5c32 0 60.833 -4.5 86.5 -13.5s46.334 -20.5 62.001 -34.5s28.834 -29.667 39.501 -47s18.167 -33.5 22.5 -48.5s6.5 -29.167 6.5 -42.5c0 -7.33301 -4.5 -14.5 -13.5 -21.5
s-20.5 -12.167 -34.5 -15.5zM292.999 675.998l-107 -90h-78l122 180h125l123 -180h-78z" />
    <glyph glyph-name="edieresis" unicode="&#xeb;" horiz-adv-x="556" 
d="M331 372c0 14.667 -4.66699 27.166 -14 37.499s-21.333 15.5 -36 15.5s-26 -6.33301 -34 -19s-12 -26.667 -12 -42c0 -26.667 6.66699 -40 20 -40c10.667 0 26 4.33301 46 13s30 20.334 30 35.001zM473 299.999l-218.001 -60.001c16.667 -78.667 56.667 -118 120 -118
c19.333 0 38.666 4.83301 57.999 14.5s35.666 19.334 48.999 29.001s22.333 14.5 27 14.5c10.667 0 16 -8.33301 16 -25c0 -32 -9 -59.5 -27 -82.5s-41.5 -40.167 -70.5 -51.5s-57.667 -19.333 -86 -24s-57.166 -7 -86.499 -7c-72.667 0 -129.167 22.5 -169.5 67.5
s-60.5 102.833 -60.5 173.5c0 76.667 27.5 144.5 82.5 203.5s120.5 88.5 196.5 88.5c32 0 60.833 -4.5 86.5 -13.5s46.334 -20.5 62.001 -34.5s28.834 -29.667 39.501 -47s18.167 -33.5 22.5 -48.5s6.5 -29.167 6.5 -42.5c0 -7.33301 -4.5 -14.5 -13.5 -21.5
s-20.5 -12.167 -34.5 -15.5zM182.999 747.998c22 0 40.5 -7.66699 55.5 -23s22.5 -34 22.5 -56s-7.5 -40.667 -22.5 -56s-33.5 -23 -55.5 -23s-40.5 7.66699 -55.5 23s-22.5 34 -22.5 56s7.5 40.667 22.5 56s33.5 23 55.5 23zM401.999 747.998c22 0 40.5 -7.66699 55.5 -23
s22.5 -34 22.5 -56s-7.5 -40.667 -22.5 -56s-33.5 -23 -55.5 -23s-40.5 7.66699 -55.5 23s-22.5 34 -22.5 56s7.5 40.667 22.5 56s33.5 23 55.5 23z" />
    <glyph glyph-name="igrave" unicode="&#xec;" horiz-adv-x="407" 
d="M93 181l0.00585938 166.995c0 2 -0.333008 4 -1 6s-1.16699 3.83301 -1.5 5.5s-1.33301 3.16699 -3 4.5s-2.83398 2.5 -3.50098 3.5s-2.33398 2.16699 -5.00098 3.5s-4.33398 2.33301 -5.00098 3s-2.5 1.83398 -5.5 3.50098s-4.83301 2.5 -5.5 2.5
c-0.666992 0.666992 -1.66699 1.33398 -3 2.00098c-14 6.66699 -22.333 15.334 -25 26.001c-0.666992 3.33301 -1 7.33301 -1 12c0 8 2.33301 15 7 21s13 11.667 25 17s22 9.33301 30 12s22 7 42 13c87.333 26.667 139.666 40 156.999 40c6.66699 0 11.5 -1.66699 14.5 -5
s4.5 -10 4.5 -20v-365c0 -12.667 13.333 -28 40 -46c6 -4 10 -7 12 -9s3.66699 -5 5 -9s2 -9.66699 2 -17c0 -36.667 -17.667 -55 -53 -55c-14.667 0 -36.334 0.5 -65.001 1.5s-50 1.5 -64 1.5s-35.333 -0.5 -64 -1.5s-50.334 -1.5 -65.001 -1.5c-10 0 -17.667 4 -23 12
s-8 17.333 -8 28c0 8.66699 0.333008 15.334 1 20.001s2.66699 9.83398 6 15.501s8.33301 10.5 15 14.5c16.667 9.33301 27.5 19.5 32.5 30.5s7.5 32.167 7.5 63.5zM288.006 585.995h-66l-129 72c-2 1.33301 -5.16699 3.33301 -9.5 6l-9 5.5
c-1.66699 1 -4.33398 2.83301 -8.00098 5.5s-6.16699 4.66699 -7.5 6s-3.33301 3.16602 -6 5.49902s-4.5 4.33301 -5.5 6s-2.5 3.83398 -4.5 6.50098s-3.16699 5.33398 -3.5 8.00098s-0.833008 5.66699 -1.5 9s-1 6.66602 -1 9.99902c0 18 5.66699 31.833 17 41.5
s25 14.5 41 14.5c16.667 0 32.334 -5 47.001 -15s35 -32.333 61 -67z" />
    <glyph glyph-name="iacute" unicode="&#xed;" horiz-adv-x="407" 
d="M93 181l0.00585938 166.995c0 2 -0.333008 4 -1 6s-1.16699 3.83301 -1.5 5.5s-1.33301 3.16699 -3 4.5s-2.83398 2.5 -3.50098 3.5s-2.33398 2.16699 -5.00098 3.5s-4.33398 2.33301 -5.00098 3s-2.5 1.83398 -5.5 3.50098s-4.83301 2.5 -5.5 2.5
c-0.666992 0.666992 -1.66699 1.33398 -3 2.00098c-14 6.66699 -22.333 15.334 -25 26.001c-0.666992 3.33301 -1 7.33301 -1 12c0 8 2.33301 15 7 21s13 11.667 25 17s22 9.33301 30 12s22 7 42 13c87.333 26.667 139.666 40 156.999 40c6.66699 0 11.5 -1.66699 14.5 -5
s4.5 -10 4.5 -20v-365c0 -12.667 13.333 -28 40 -46c6 -4 10 -7 12 -9s3.66699 -5 5 -9s2 -9.66699 2 -17c0 -36.667 -17.667 -55 -53 -55c-14.667 0 -36.334 0.5 -65.001 1.5s-50 1.5 -64 1.5s-35.333 -0.5 -64 -1.5s-50.334 -1.5 -65.001 -1.5c-10 0 -17.667 4 -23 12
s-8 17.333 -8 28c0 8.66699 0.333008 15.334 1 20.001s2.66699 9.83398 6 15.501s8.33301 10.5 15 14.5c16.667 9.33301 27.5 19.5 32.5 30.5s7.5 32.167 7.5 63.5zM119.006 585.995l85.001 114.002l12 16c6 8 10.167 13.667 12.5 17s6.5 8.16602 12.5 14.499s11 11 15 14
s9.16699 6.5 15.5 10.5s12.833 6.66699 19.5 8s13.667 2 21 2c16 0 29.667 -4.83301 41 -14.5s17 -23.5 17 -41.5c0 -4 -0.166992 -7.66699 -0.5 -11s-1.33301 -6.66602 -3 -9.99902s-2.83398 -6 -3.50098 -8s-2.5 -4.5 -5.5 -7.5l-6.5 -6.5
c-1.33301 -1.33301 -4 -3.5 -8 -6.5s-6.66699 -4.83301 -8 -5.5s-4.83301 -2.83398 -10.5 -6.50098s-9.16699 -5.83398 -10.5 -6.50098l-129 -72h-66z" />
    <glyph glyph-name="icircumflex" unicode="&#xee;" horiz-adv-x="407" 
d="M93 181l0.00585938 166.995c0 2 -0.333008 4 -1 6s-1.16699 3.83301 -1.5 5.5s-1.33301 3.16699 -3 4.5s-2.83398 2.5 -3.50098 3.5s-2.33398 2.16699 -5.00098 3.5s-4.33398 2.33301 -5.00098 3s-2.5 1.83398 -5.5 3.50098s-4.83301 2.5 -5.5 2.5
c-0.666992 0.666992 -1.66699 1.33398 -3 2.00098c-14 6.66699 -22.333 15.334 -25 26.001c-0.666992 3.33301 -1 7.33301 -1 12c0 8 2.33301 15 7 21s13 11.667 25 17s22 9.33301 30 12s22 7 42 13c87.333 26.667 139.666 40 156.999 40c6.66699 0 11.5 -1.66699 14.5 -5
s4.5 -10 4.5 -20v-365c0 -12.667 13.333 -28 40 -46c6 -4 10 -7 12 -9s3.66699 -5 5 -9s2 -9.66699 2 -17c0 -36.667 -17.667 -55 -53 -55c-14.667 0 -36.334 0.5 -65.001 1.5s-50 1.5 -64 1.5s-35.333 -0.5 -64 -1.5s-50.334 -1.5 -65.001 -1.5c-10 0 -17.667 4 -23 12
s-8 17.333 -8 28c0 8.66699 0.333008 15.334 1 20.001s2.66699 9.83398 6 15.501s8.33301 10.5 15 14.5c16.667 9.33301 27.5 19.5 32.5 30.5s7.5 32.167 7.5 63.5zM204.006 675.995l-107 -90h-78l122 180h125l123 -180h-78z" />
    <glyph glyph-name="idieresis" unicode="&#xef;" horiz-adv-x="407" 
d="M93 181l0.00585938 166.995c0 2 -0.333008 4 -1 6s-1.16699 3.83301 -1.5 5.5s-1.33301 3.16699 -3 4.5s-2.83398 2.5 -3.50098 3.5s-2.33398 2.16699 -5.00098 3.5s-4.33398 2.33301 -5.00098 3s-2.5 1.83398 -5.5 3.50098s-4.83301 2.5 -5.5 2.5
c-0.666992 0.666992 -1.66699 1.33398 -3 2.00098c-14 6.66699 -22.333 15.334 -25 26.001c-0.666992 3.33301 -1 7.33301 -1 12c0 8 2.33301 15 7 21s13 11.667 25 17s22 9.33301 30 12s22 7 42 13c87.333 26.667 139.666 40 156.999 40c6.66699 0 11.5 -1.66699 14.5 -5
s4.5 -10 4.5 -20v-365c0 -12.667 13.333 -28 40 -46c6 -4 10 -7 12 -9s3.66699 -5 5 -9s2 -9.66699 2 -17c0 -36.667 -17.667 -55 -53 -55c-14.667 0 -36.334 0.5 -65.001 1.5s-50 1.5 -64 1.5s-35.333 -0.5 -64 -1.5s-50.334 -1.5 -65.001 -1.5c-10 0 -17.667 4 -23 12
s-8 17.333 -8 28c0 8.66699 0.333008 15.334 1 20.001s2.66699 9.83398 6 15.501s8.33301 10.5 15 14.5c16.667 9.33301 27.5 19.5 32.5 30.5s7.5 32.167 7.5 63.5zM94.0059 747.995c22 0 40.5 -7.66699 55.5 -23s22.5 -34 22.5 -56s-7.5 -40.667 -22.5 -56
s-33.5 -23 -55.5 -23s-40.5 7.66699 -55.5 23s-22.5 34 -22.5 56s7.5 40.667 22.5 56s33.5 23 55.5 23zM313.006 747.995c22 0 40.5 -7.66699 55.5 -23s22.5 -34 22.5 -56s-7.5 -40.667 -22.5 -56s-33.5 -23 -55.5 -23s-40.5 7.66699 -55.5 23s-22.5 34 -22.5 56
s7.5 40.667 22.5 56s33.5 23 55.5 23z" />
    <glyph glyph-name="eth" unicode="&#xf0;" horiz-adv-x="611" 
d="M293 423c-27.333 0 -41 -40.333 -41 -121c0 -141.333 21.667 -212 65 -212c28 0 42 40.333 42 121c0 141.333 -22 212 -66 212zM490 683l-0.000976562 -78.999l-64 -11l99 -133c42.667 -58 64 -123 64 -195c0 -86 -27.5 -153.333 -82.5 -202s-125.5 -73 -211.5 -73
c-83.333 0 -149.666 21.667 -198.999 65s-74 105.666 -74 186.999c0 86 25.833 154.167 77.5 204.5s120.5 75.833 206.5 76.5l-26 45l-103 -18v80l61 10l-27 46l131 34l37 -56z" />
    <glyph glyph-name="ntilde" unicode="&#xf1;" horiz-adv-x="722" 
d="M301 353l-0.00292969 -224.999c0 -22.667 6 -36.334 18 -41.001c16 -6.66699 25.667 -14 29 -22c2.66699 -5.33301 4 -12.333 4 -21c0 -18.667 -3.66699 -31.167 -11 -37.5s-21.666 -9.5 -42.999 -9.5c-12 0 -30 0.5 -54 1.5s-42 1.5 -54 1.5s-30 -0.5 -54 -1.5
s-42 -1.5 -54 -1.5c-24 0 -39 3.16699 -45 9.5s-9 18.166 -9 35.499c0 4 0.166992 7.66699 0.5 11s1.16602 6.33301 2.49902 9l3 6c0.666992 1.33301 2.5 3.16602 5.5 5.49902s5 3.83301 6 4.5s3.66699 2.16699 8 4.5s6.83301 3.83301 7.5 4.5c8.66699 5.33301 14 18 16 38
s3 58 3 114c0 52 -1 85.333 -3 100s-8 26.667 -18 36c-0.666992 0.666992 -4.33398 3.16699 -11.001 7.5s-11 8.83301 -13 13.5s-3 11 -3 19c0 7.33301 1.16699 13.833 3.5 19.5s4.83301 10.334 7.5 14.001s7.83398 7.5 15.501 11.5s13.834 7 18.501 9s13.5 5.5 26.5 10.5
l30.5 11.5c73.333 29.333 121.666 44 144.999 44c12 0 19 -4.66699 21 -14c2 -14 3 -35 3 -63c67.333 43.333 123.333 65 168 65c54 0 97.5 -18.667 130.5 -56s49.5 -80.666 49.5 -129.999v-194c0 -14.667 1 -25.667 3 -33s7.66699 -15 17 -23
c4 -3.33301 9.16699 -6.66602 15.5 -9.99902s10.666 -6.83301 12.999 -10.5s3.5 -10.5 3.5 -20.5c0 -16.667 -2.33301 -29 -7 -37s-14.334 -12 -29.001 -12c-13.333 0 -33.166 0.5 -59.499 1.5s-46.166 1.5 -59.499 1.5s-33.166 -0.5 -59.499 -1.5
s-46.166 -1.5 -59.499 -1.5c-18.667 0 -30.5 3.83301 -35.5 11.5s-7.5 20.5 -7.5 38.5c0 7.33301 1.5 13.666 4.5 18.999s6.16699 9.16602 9.5 11.499s9 5.5 17 9.5c8.66699 4.66699 13 20.334 13 47.001c0 10 -0.333008 30.667 -1 62s-1 56.333 -1 75
c0 31.333 -7.16699 59.333 -21.5 84s-36.166 37 -65.499 37c-26.667 0 -40 -13 -40 -39zM511.997 747.001h55.001c-20.667 -97.333 -62.667 -146 -126 -146c-28.667 0 -61.667 9 -99 27c-38.667 17.333 -63 26 -73 26c-12.667 0 -23.334 -4.83301 -32.001 -14.5
s-13.667 -21.167 -15 -34.5h-52c12 97.333 56.333 146 133 146c20 0 48.667 -8.66699 86 -26c40 -18.667 65 -28 75 -28c24 0 40 16.667 48 50z" />
    <glyph glyph-name="ograve" unicode="&#xf2;" horiz-adv-x="611" 
d="M22 242c0 86.667 25.999 155.167 77.999 205.5s121.667 75.5 209 75.5c84.667 0 152.5 -22.167 203.5 -66.5s76.5 -108.166 76.5 -191.499c0 -86 -27.5 -153.333 -82.5 -202s-125.5 -73 -211.5 -73c-83.333 0 -149.666 21.667 -198.999 65s-74 105.666 -74 186.999z
M292.999 423c-27.333 0 -41 -40.333 -41 -121c0 -141.333 21.667 -212 65 -212c28 0 42 40.333 42 121c0 141.333 -22 212 -66 212zM389.999 586h-66l-129 72c-2 1.33301 -5.16699 3.33301 -9.5 6l-9 5.5c-1.66699 1 -4.33398 2.83301 -8.00098 5.5s-6.16699 4.66699 -7.5 6
s-3.33301 3.16602 -6 5.49902s-4.5 4.33301 -5.5 6s-2.5 3.83398 -4.5 6.50098s-3.16699 5.33398 -3.5 8.00098s-0.833008 5.66699 -1.5 9s-1 6.66602 -1 9.99902c0 18 5.66699 31.833 17 41.5s25 14.5 41 14.5c16.667 0 32.334 -5 47.001 -15s35 -32.333 61 -67z" />
    <glyph glyph-name="oacute" unicode="&#xf3;" horiz-adv-x="611" 
d="M22 242c0 86.667 25.999 155.167 77.999 205.5s121.667 75.5 209 75.5c84.667 0 152.5 -22.167 203.5 -66.5s76.5 -108.166 76.5 -191.499c0 -86 -27.5 -153.333 -82.5 -202s-125.5 -73 -211.5 -73c-83.333 0 -149.666 21.667 -198.999 65s-74 105.666 -74 186.999z
M292.999 423c-27.333 0 -41 -40.333 -41 -121c0 -141.333 21.667 -212 65 -212c28 0 42 40.333 42 121c0 141.333 -22 212 -66 212zM220.999 586l85.001 114.002l12 16c6 8 10.167 13.667 12.5 17s6.5 8.16602 12.5 14.499s11 11 15 14s9.16699 6.5 15.5 10.5
s12.833 6.66699 19.5 8s13.667 2 21 2c16 0 29.667 -4.83301 41 -14.5s17 -23.5 17 -41.5c0 -4 -0.166992 -7.66699 -0.5 -11s-1.33301 -6.66602 -3 -9.99902s-2.83398 -6 -3.50098 -8s-2.5 -4.5 -5.5 -7.5l-6.5 -6.5c-1.33301 -1.33301 -4 -3.5 -8 -6.5
s-6.66699 -4.83301 -8 -5.5s-4.83301 -2.83398 -10.5 -6.50098s-9.16699 -5.83398 -10.5 -6.50098l-129 -72h-66z" />
    <glyph glyph-name="ocircumflex" unicode="&#xf4;" horiz-adv-x="611" 
d="M22 242c0 86.667 25.999 155.167 77.999 205.5s121.667 75.5 209 75.5c84.667 0 152.5 -22.167 203.5 -66.5s76.5 -108.166 76.5 -191.499c0 -86 -27.5 -153.333 -82.5 -202s-125.5 -73 -211.5 -73c-83.333 0 -149.666 21.667 -198.999 65s-74 105.666 -74 186.999z
M292.999 423c-27.333 0 -41 -40.333 -41 -121c0 -141.333 21.667 -212 65 -212c28 0 42 40.333 42 121c0 141.333 -22 212 -66 212zM305.999 676l-107 -90h-78l122 180h125l123 -180h-78z" />
    <glyph glyph-name="otilde" unicode="&#xf5;" horiz-adv-x="611" 
d="M22 242c0 86.667 25.999 155.167 77.999 205.5s121.667 75.5 209 75.5c84.667 0 152.5 -22.167 203.5 -66.5s76.5 -108.166 76.5 -191.499c0 -86 -27.5 -153.333 -82.5 -202s-125.5 -73 -211.5 -73c-83.333 0 -149.666 21.667 -198.999 65s-74 105.666 -74 186.999z
M292.999 423c-27.333 0 -41 -40.333 -41 -121c0 -141.333 21.667 -212 65 -212c28 0 42 40.333 42 121c0 141.333 -22 212 -66 212zM449.999 747h55.001c-20.667 -97.333 -62.667 -146 -126 -146c-28.667 0 -61.667 9 -99 27c-38.667 17.333 -63 26 -73 26
c-12.667 0 -23.334 -4.83301 -32.001 -14.5s-13.667 -21.167 -15 -34.5h-52c12 97.333 56.333 146 133 146c20 0 48.667 -8.66699 86 -26c40 -18.667 65 -28 75 -28c24 0 40 16.667 48 50z" />
    </font>
</defs>
</svg>
