<?xml version="1.0" standalone="no"?>
<!DOCTYPE svg PUBLIC "-//W3C//DTD SVG 1.1//EN" "http://www.w3.org/Graphics/SVG/1.1/DTD/svg11.dtd" >
<svg xmlns="http://www.w3.org/2000/svg" xmlns:xlink="http://www.w3.org/1999/xlink" version="1.1">
<metadata>
Created by FontForge 20170910 at Tue Dec 23 12:47:42 1997
 By Jimmy Wärting
Generated by Fontographer 4.1
</metadata>
<defs>
<font id="Horrorshow" horiz-adv-x="759" >
  <font-face 
    font-family="Horrorshow"
    font-weight="400"
    font-stretch="normal"
    units-per-em="1000"
    panose-1="0 0 4 0 0 0 0 0 0 0"
    ascent="800"
    descent="-200"
    x-height="679"
    cap-height="781"
    bbox="42 -176 685 816"
    underline-thickness="20"
    underline-position="-143"
    unicode-range="U+0020-007E"
  />
<missing-glyph horiz-adv-x="500" 
d="M63 0v800h375v-800h-375zM125 63h250v675h-250v-675z" />
    <glyph glyph-name=".notdef" horiz-adv-x="500" 
d="M63 0v800h375v-800h-375zM125 63h250v675h-250v-675z" />
    <glyph glyph-name=".null" horiz-adv-x="0" 
 />
    <glyph glyph-name="nonmarkingreturn" horiz-adv-x="500" 
 />
    <glyph glyph-name="space" unicode=" " horiz-adv-x="500" 
 />
    <glyph glyph-name="glyph4" horiz-adv-x="275" 
 />
    <glyph glyph-name="glyph5" horiz-adv-x="222" 
d="M238 795h-163v21h163v-21z" />
    <glyph glyph-name="exclam" unicode="!" horiz-adv-x="305" 
d="M172 159q-8 0 -25.5 2.5t-26.5 2.5q-16 0 -27 -6v511q26 -26 79 -26v-484zM221 -39q0 -32 -26 -55t-51 -23q-27 0 -50 28.5t-28 62.5q9 18 38.5 35t51.5 17t43.5 -21.5t21.5 -43.5z" />
    <glyph glyph-name="quotedbl" unicode="&#x22;" 
d="M672 714l-154 -176q0 -5 4 -6.5t12 -3t10 -1.5h12.5h13.5q3 -12 3 -49q-6 -8 -23.5 -8.5t-34.5 -0.5q-3 -2 -6 -6q-8 -53 -23 -158l171 -209q-9 -13 -30 -26l-145 162q-8 -5 -8 -15q0 -7 13 -21t16 -22q5 -22 5 -27q0 -13 -12.5 -33t-25.5 -23q-24 -6 -30 -6q-8 0 -25 8
q-20 9 -25 20q-6 15 -13 24q-5 3 -26 3q-1 0 -22.5 -1.5t-34.5 -1.5q-7 0 -11 -4v-27q0 -3 -1.5 -5t-1.5 -3q-8 -3 -26 -3q-3 0 -23 1q-5 6 -5 18q0 16 -1 19q-5 3 -13 10q0 12 -5 37q-17 -9 -58.5 -59.5t-48.5 -50.5q-4 0 -16 11t-12 15q0 7 24 33q37 39 104 119q1 1 1 23
q0 3 -3 40q-4 44 -5 61q-7 87 -15 173q-1 12 -3 32q-2 10 -26 9q0 10 -4 29l-41.5 47.5t-41.5 52.5q0 3 11.5 14t18.5 14l99 -102q21 1 21.5 24t15.5 23q12 0 16.5 -15t10.5 -15q17 0 44 12q1 11 4 33h88q7 -3 8 -15q0 -7 1 -15q0 -1 4 -4q15 -2 54 -9q36 -7 38 -7
q7 0 16 15t28 15q14 0 29 -12l72 72q4 0 15.5 -11t15.5 -18zM429 -16q-6 -1 -17 -5v-33q4 -3 14 -2l1.5 -7.5t1.5 -14.5q-3 0 -10.5 -1.5t-10.5 -1.5q-25 0 -28 20.5t-4 39.5q-1 2 -9 2v25h9q3 0 3 5q-1 9 -1 8q7 5 31 17q3 -10 3 -28q6 -1 17 -5v-19zM359 9h-36v-87h-37v86
q-19 1 -38 -1l3 30h108v-28zM548 655q-1 0 -5.5 1.5t-8.5 1.5l-6 -7q0 -4 6 -10h11zM548 498q-2 7 -15 7q-12 -1 -20 -7q6 -5 6 -6q24 0 29 6zM362 672v4h-27v-4h27zM469 626q-50 17 -107 17q-24 0 -86 -8q-8 -3 -23 -8zM488 583l-206 3q-27 1 -41 -6q32 -39 73 -80
q0 10 5 14h82q18 -1 24 -2q4 0 3 0q5 0 32 33.5t28 37.5zM402 480q0 6 -6 12q-19 0 -56 -1v-13q3 -1 48 -1q10 0 14 3zM483 494q-84 -83 -84 -95q0 -5 27 -35.5t32 -30.5t6 3zM374 447q-1 0 -5.5 1.5t-5.5 1.5q-4 -6 0 -10q5 0 11 7zM330 400q0 6 -55 67.5t-69 71.5v-31
l23 -222q18 16 59.5 61.5t41.5 52.5zM451 259q0 9 -39 53.5t-48 48.5l-131 -150q3 -12 4 -41q22 -5 73 -5q53 0 71 3q20 34 51 43q19 6 19 48zM484 150q0 13 -13 26t-26 13q-18 0 -29.5 -12.5t-11.5 -27.5q0 -17 11.5 -28t27.5 -11q15 0 28 11t13 29zM263 124q-2 5 -9 13
q-3 -1 -8 -5v-14q1 0 5.5 -1.5t5.5 -1.5q1 1 3 4t3 5zM469 150q0 -25 -25 -25t-25 24q0 26 25 26q9 0 17 -8.5t8 -16.5z" />
    <glyph glyph-name="numbersign" unicode="#" 
d="M672 714l-154 -176q0 -5 4 -6.5t12 -3t10 -1.5h12.5h13.5q3 -12 3 -49q-6 -8 -23.5 -8.5t-34.5 -0.5q-3 -2 -6 -6q-8 -53 -23 -158l171 -209q-9 -13 -30 -26l-145 162q-8 -5 -8 -15q0 -7 13 -21t16 -22q5 -22 5 -27q0 -13 -12.5 -33t-25.5 -23q-24 -6 -30 -6q-8 0 -25 8
q-20 9 -25 20q-6 15 -13 24q-5 3 -26 3q-1 0 -22.5 -1.5t-34.5 -1.5q-7 0 -11 -4v-27q0 -3 -1.5 -5t-1.5 -3q-8 -3 -26 -3q-3 0 -23 1q-5 6 -5 18q0 16 -1 19q-5 3 -13 10q0 12 -5 37q-17 -9 -58.5 -59.5t-48.5 -50.5q-4 0 -16 11t-12 15q0 7 24 33q37 39 104 119q1 1 1 23
q0 3 -3 40q-4 44 -5 61q-7 87 -15 173q-1 12 -3 32q-2 10 -26 9q0 10 -4 29l-41.5 47.5t-41.5 52.5q0 3 11.5 14t18.5 14l99 -102q21 1 21.5 24t15.5 23q12 0 16.5 -15t10.5 -15q17 0 44 12q1 11 4 33h88q7 -3 8 -15q0 -7 1 -15q0 -1 4 -4q15 -2 54 -9q36 -7 38 -7
q7 0 16 15t28 15q14 0 29 -12l72 72q4 0 15.5 -11t15.5 -18zM429 -16q-6 -1 -17 -5v-33q4 -3 14 -2l1.5 -7.5t1.5 -14.5q-3 0 -10.5 -1.5t-10.5 -1.5q-25 0 -28 20.5t-4 39.5q-1 2 -9 2v25h9q3 0 3 5q-1 9 -1 8q7 5 31 17q3 -10 3 -28q6 -1 17 -5v-19zM359 9h-36v-87h-37v86
q-19 1 -38 -1l3 30h108v-28zM548 655q-1 0 -5.5 1.5t-8.5 1.5l-6 -7q0 -4 6 -10h11zM548 498q-2 7 -15 7q-12 -1 -20 -7q6 -5 6 -6q24 0 29 6zM362 672v4h-27v-4h27zM469 626q-50 17 -107 17q-24 0 -86 -8q-8 -3 -23 -8zM488 583l-206 3q-27 1 -41 -6q32 -39 73 -80
q0 10 5 14h82q18 -1 24 -2q4 0 3 0q5 0 32 33.5t28 37.5zM402 480q0 6 -6 12q-19 0 -56 -1v-13q3 -1 48 -1q10 0 14 3zM483 494q-84 -83 -84 -95q0 -5 27 -35.5t32 -30.5t6 3zM374 447q-1 0 -5.5 1.5t-5.5 1.5q-4 -6 0 -10q5 0 11 7zM330 400q0 6 -55 67.5t-69 71.5v-31
l23 -222q18 16 59.5 61.5t41.5 52.5zM451 259q0 9 -39 53.5t-48 48.5l-131 -150q3 -12 4 -41q22 -5 73 -5q53 0 71 3q20 34 51 43q19 6 19 48zM484 150q0 13 -13 26t-26 13q-18 0 -29.5 -12.5t-11.5 -27.5q0 -17 11.5 -28t27.5 -11q15 0 28 11t13 29zM263 124q-2 5 -9 13
q-3 -1 -8 -5v-14q1 0 5.5 -1.5t5.5 -1.5q1 1 3 4t3 5zM469 150q0 -25 -25 -25t-25 24q0 26 25 26q9 0 17 -8.5t8 -16.5z" />
    <glyph glyph-name="dollar" unicode="$" 
d="M672 714l-154 -176q0 -5 4 -6.5t12 -3t10 -1.5h12.5h13.5q3 -12 3 -49q-6 -8 -23.5 -8.5t-34.5 -0.5q-3 -2 -6 -6q-8 -53 -23 -158l171 -209q-9 -13 -30 -26l-145 162q-8 -5 -8 -15q0 -7 13 -21t16 -22q5 -22 5 -27q0 -13 -12.5 -33t-25.5 -23q-24 -6 -30 -6q-8 0 -25 8
q-20 9 -25 20q-6 15 -13 24q-5 3 -26 3q-1 0 -22.5 -1.5t-34.5 -1.5q-7 0 -11 -4v-27q0 -3 -1.5 -5t-1.5 -3q-8 -3 -26 -3q-3 0 -23 1q-5 6 -5 18q0 16 -1 19q-5 3 -13 10q0 12 -5 37q-17 -9 -58.5 -59.5t-48.5 -50.5q-4 0 -16 11t-12 15q0 7 24 33q37 39 104 119q1 1 1 23
q0 3 -3 40q-4 44 -5 61q-7 87 -15 173q-1 12 -3 32q-2 10 -26 9q0 10 -4 29l-41.5 47.5t-41.5 52.5q0 3 11.5 14t18.5 14l99 -102q21 1 21.5 24t15.5 23q12 0 16.5 -15t10.5 -15q17 0 44 12q1 11 4 33h88q7 -3 8 -15q0 -7 1 -15q0 -1 4 -4q15 -2 54 -9q36 -7 38 -7
q7 0 16 15t28 15q14 0 29 -12l72 72q4 0 15.5 -11t15.5 -18zM429 -16q-6 -1 -17 -5v-33q4 -3 14 -2l1.5 -7.5t1.5 -14.5q-3 0 -10.5 -1.5t-10.5 -1.5q-25 0 -28 20.5t-4 39.5q-1 2 -9 2v25h9q3 0 3 5q-1 9 -1 8q7 5 31 17q3 -10 3 -28q6 -1 17 -5v-19zM359 9h-36v-87h-37v86
q-19 1 -38 -1l3 30h108v-28zM548 655q-1 0 -5.5 1.5t-8.5 1.5l-6 -7q0 -4 6 -10h11zM548 498q-2 7 -15 7q-12 -1 -20 -7q6 -5 6 -6q24 0 29 6zM362 672v4h-27v-4h27zM469 626q-50 17 -107 17q-24 0 -86 -8q-8 -3 -23 -8zM488 583l-206 3q-27 1 -41 -6q32 -39 73 -80
q0 10 5 14h82q18 -1 24 -2q4 0 3 0q5 0 32 33.5t28 37.5zM402 480q0 6 -6 12q-19 0 -56 -1v-13q3 -1 48 -1q10 0 14 3zM483 494q-84 -83 -84 -95q0 -5 27 -35.5t32 -30.5t6 3zM374 447q-1 0 -5.5 1.5t-5.5 1.5q-4 -6 0 -10q5 0 11 7zM330 400q0 6 -55 67.5t-69 71.5v-31
l23 -222q18 16 59.5 61.5t41.5 52.5zM451 259q0 9 -39 53.5t-48 48.5l-131 -150q3 -12 4 -41q22 -5 73 -5q53 0 71 3q20 34 51 43q19 6 19 48zM484 150q0 13 -13 26t-26 13q-18 0 -29.5 -12.5t-11.5 -27.5q0 -17 11.5 -28t27.5 -11q15 0 28 11t13 29zM263 124q-2 5 -9 13
q-3 -1 -8 -5v-14q1 0 5.5 -1.5t5.5 -1.5q1 1 3 4t3 5zM469 150q0 -25 -25 -25t-25 24q0 26 25 26q9 0 17 -8.5t8 -16.5z" />
    <glyph glyph-name="percent" unicode="%" 
d="M672 714l-154 -176q0 -5 4 -6.5t12 -3t10 -1.5h12.5h13.5q3 -12 3 -49q-6 -8 -23.5 -8.5t-34.5 -0.5q-3 -2 -6 -6q-8 -53 -23 -158l171 -209q-9 -13 -30 -26l-145 162q-8 -5 -8 -15q0 -7 13 -21t16 -22q5 -22 5 -27q0 -13 -12.5 -33t-25.5 -23q-24 -6 -30 -6q-8 0 -25 8
q-20 9 -25 20q-6 15 -13 24q-5 3 -26 3q-1 0 -22.5 -1.5t-34.5 -1.5q-7 0 -11 -4v-27q0 -3 -1.5 -5t-1.5 -3q-8 -3 -26 -3q-3 0 -23 1q-5 6 -5 18q0 16 -1 19q-5 3 -13 10q0 12 -5 37q-17 -9 -58.5 -59.5t-48.5 -50.5q-4 0 -16 11t-12 15q0 7 24 33q37 39 104 119q1 1 1 23
q0 3 -3 40q-4 44 -5 61q-7 87 -15 173q-1 12 -3 32q-2 10 -26 9q0 10 -4 29l-41.5 47.5t-41.5 52.5q0 3 11.5 14t18.5 14l99 -102q21 1 21.5 24t15.5 23q12 0 16.5 -15t10.5 -15q17 0 44 12q1 11 4 33h88q7 -3 8 -15q0 -7 1 -15q0 -1 4 -4q15 -2 54 -9q36 -7 38 -7
q7 0 16 15t28 15q14 0 29 -12l72 72q4 0 15.5 -11t15.5 -18zM429 -16q-6 -1 -17 -5v-33q4 -3 14 -2l1.5 -7.5t1.5 -14.5q-3 0 -10.5 -1.5t-10.5 -1.5q-25 0 -28 20.5t-4 39.5q-1 2 -9 2v25h9q3 0 3 5q-1 9 -1 8q7 5 31 17q3 -10 3 -28q6 -1 17 -5v-19zM359 9h-36v-87h-37v86
q-19 1 -38 -1l3 30h108v-28zM548 655q-1 0 -5.5 1.5t-8.5 1.5l-6 -7q0 -4 6 -10h11zM548 498q-2 7 -15 7q-12 -1 -20 -7q6 -5 6 -6q24 0 29 6zM362 672v4h-27v-4h27zM469 626q-50 17 -107 17q-24 0 -86 -8q-8 -3 -23 -8zM488 583l-206 3q-27 1 -41 -6q32 -39 73 -80
q0 10 5 14h82q18 -1 24 -2q4 0 3 0q5 0 32 33.5t28 37.5zM402 480q0 6 -6 12q-19 0 -56 -1v-13q3 -1 48 -1q10 0 14 3zM483 494q-84 -83 -84 -95q0 -5 27 -35.5t32 -30.5t6 3zM374 447q-1 0 -5.5 1.5t-5.5 1.5q-4 -6 0 -10q5 0 11 7zM330 400q0 6 -55 67.5t-69 71.5v-31
l23 -222q18 16 59.5 61.5t41.5 52.5zM451 259q0 9 -39 53.5t-48 48.5l-131 -150q3 -12 4 -41q22 -5 73 -5q53 0 71 3q20 34 51 43q19 6 19 48zM484 150q0 13 -13 26t-26 13q-18 0 -29.5 -12.5t-11.5 -27.5q0 -17 11.5 -28t27.5 -11q15 0 28 11t13 29zM263 124q-2 5 -9 13
q-3 -1 -8 -5v-14q1 0 5.5 -1.5t5.5 -1.5q1 1 3 4t3 5zM469 150q0 -25 -25 -25t-25 24q0 26 25 26q9 0 17 -8.5t8 -16.5z" />
    <glyph glyph-name="ampersand" unicode="&#x26;" 
d="M672 714l-154 -176q0 -5 4 -6.5t12 -3t10 -1.5h12.5h13.5q3 -12 3 -49q-6 -8 -23.5 -8.5t-34.5 -0.5q-3 -2 -6 -6q-8 -53 -23 -158l171 -209q-9 -13 -30 -26l-145 162q-8 -5 -8 -15q0 -7 13 -21t16 -22q5 -22 5 -27q0 -13 -12.5 -33t-25.5 -23q-24 -6 -30 -6q-8 0 -25 8
q-20 9 -25 20q-6 15 -13 24q-5 3 -26 3q-1 0 -22.5 -1.5t-34.5 -1.5q-7 0 -11 -4v-27q0 -3 -1.5 -5t-1.5 -3q-8 -3 -26 -3q-3 0 -23 1q-5 6 -5 18q0 16 -1 19q-5 3 -13 10q0 12 -5 37q-17 -9 -58.5 -59.5t-48.5 -50.5q-4 0 -16 11t-12 15q0 7 24 33q37 39 104 119q1 1 1 23
q0 3 -3 40q-4 44 -5 61q-7 87 -15 173q-1 12 -3 32q-2 10 -26 9q0 10 -4 29l-41.5 47.5t-41.5 52.5q0 3 11.5 14t18.5 14l99 -102q21 1 21.5 24t15.5 23q12 0 16.5 -15t10.5 -15q17 0 44 12q1 11 4 33h88q7 -3 8 -15q0 -7 1 -15q0 -1 4 -4q15 -2 54 -9q36 -7 38 -7
q7 0 16 15t28 15q14 0 29 -12l72 72q4 0 15.5 -11t15.5 -18zM429 -16q-6 -1 -17 -5v-33q4 -3 14 -2l1.5 -7.5t1.5 -14.5q-3 0 -10.5 -1.5t-10.5 -1.5q-25 0 -28 20.5t-4 39.5q-1 2 -9 2v25h9q3 0 3 5q-1 9 -1 8q7 5 31 17q3 -10 3 -28q6 -1 17 -5v-19zM359 9h-36v-87h-37v86
q-19 1 -38 -1l3 30h108v-28zM548 655q-1 0 -5.5 1.5t-8.5 1.5l-6 -7q0 -4 6 -10h11zM548 498q-2 7 -15 7q-12 -1 -20 -7q6 -5 6 -6q24 0 29 6zM362 672v4h-27v-4h27zM469 626q-50 17 -107 17q-24 0 -86 -8q-8 -3 -23 -8zM488 583l-206 3q-27 1 -41 -6q32 -39 73 -80
q0 10 5 14h82q18 -1 24 -2q4 0 3 0q5 0 32 33.5t28 37.5zM402 480q0 6 -6 12q-19 0 -56 -1v-13q3 -1 48 -1q10 0 14 3zM483 494q-84 -83 -84 -95q0 -5 27 -35.5t32 -30.5t6 3zM374 447q-1 0 -5.5 1.5t-5.5 1.5q-4 -6 0 -10q5 0 11 7zM330 400q0 6 -55 67.5t-69 71.5v-31
l23 -222q18 16 59.5 61.5t41.5 52.5zM451 259q0 9 -39 53.5t-48 48.5l-131 -150q3 -12 4 -41q22 -5 73 -5q53 0 71 3q20 34 51 43q19 6 19 48zM484 150q0 13 -13 26t-26 13q-18 0 -29.5 -12.5t-11.5 -27.5q0 -17 11.5 -28t27.5 -11q15 0 28 11t13 29zM263 124q-2 5 -9 13
q-3 -1 -8 -5v-14q1 0 5.5 -1.5t5.5 -1.5q1 1 3 4t3 5zM469 150q0 -25 -25 -25t-25 24q0 26 25 26q9 0 17 -8.5t8 -16.5z" />
    <glyph glyph-name="quotesingle" unicode="'" 
d="M672 714l-154 -176q0 -5 4 -6.5t12 -3t10 -1.5h12.5h13.5q3 -12 3 -49q-6 -8 -23.5 -8.5t-34.5 -0.5q-3 -2 -6 -6q-8 -53 -23 -158l171 -209q-9 -13 -30 -26l-145 162q-8 -5 -8 -15q0 -7 13 -21t16 -22q5 -22 5 -27q0 -13 -12.5 -33t-25.5 -23q-24 -6 -30 -6q-8 0 -25 8
q-20 9 -25 20q-6 15 -13 24q-5 3 -26 3q-1 0 -22.5 -1.5t-34.5 -1.5q-7 0 -11 -4v-27q0 -3 -1.5 -5t-1.5 -3q-8 -3 -26 -3q-3 0 -23 1q-5 6 -5 18q0 16 -1 19q-5 3 -13 10q0 12 -5 37q-17 -9 -58.5 -59.5t-48.5 -50.5q-4 0 -16 11t-12 15q0 7 24 33q37 39 104 119q1 1 1 23
q0 3 -3 40q-4 44 -5 61q-7 87 -15 173q-1 12 -3 32q-2 10 -26 9q0 10 -4 29l-41.5 47.5t-41.5 52.5q0 3 11.5 14t18.5 14l99 -102q21 1 21.5 24t15.5 23q12 0 16.5 -15t10.5 -15q17 0 44 12q1 11 4 33h88q7 -3 8 -15q0 -7 1 -15q0 -1 4 -4q15 -2 54 -9q36 -7 38 -7
q7 0 16 15t28 15q14 0 29 -12l72 72q4 0 15.5 -11t15.5 -18zM429 -16q-6 -1 -17 -5v-33q4 -3 14 -2l1.5 -7.5t1.5 -14.5q-3 0 -10.5 -1.5t-10.5 -1.5q-25 0 -28 20.5t-4 39.5q-1 2 -9 2v25h9q3 0 3 5q-1 9 -1 8q7 5 31 17q3 -10 3 -28q6 -1 17 -5v-19zM359 9h-36v-87h-37v86
q-19 1 -38 -1l3 30h108v-28zM548 655q-1 0 -5.5 1.5t-8.5 1.5l-6 -7q0 -4 6 -10h11zM548 498q-2 7 -15 7q-12 -1 -20 -7q6 -5 6 -6q24 0 29 6zM362 672v4h-27v-4h27zM469 626q-50 17 -107 17q-24 0 -86 -8q-8 -3 -23 -8zM488 583l-206 3q-27 1 -41 -6q32 -39 73 -80
q0 10 5 14h82q18 -1 24 -2q4 0 3 0q5 0 32 33.5t28 37.5zM402 480q0 6 -6 12q-19 0 -56 -1v-13q3 -1 48 -1q10 0 14 3zM483 494q-84 -83 -84 -95q0 -5 27 -35.5t32 -30.5t6 3zM374 447q-1 0 -5.5 1.5t-5.5 1.5q-4 -6 0 -10q5 0 11 7zM330 400q0 6 -55 67.5t-69 71.5v-31
l23 -222q18 16 59.5 61.5t41.5 52.5zM451 259q0 9 -39 53.5t-48 48.5l-131 -150q3 -12 4 -41q22 -5 73 -5q53 0 71 3q20 34 51 43q19 6 19 48zM484 150q0 13 -13 26t-26 13q-18 0 -29.5 -12.5t-11.5 -27.5q0 -17 11.5 -28t27.5 -11q15 0 28 11t13 29zM263 124q-2 5 -9 13
q-3 -1 -8 -5v-14q1 0 5.5 -1.5t5.5 -1.5q1 1 3 4t3 5zM469 150q0 -25 -25 -25t-25 24q0 26 25 26q9 0 17 -8.5t8 -16.5z" />
    <glyph glyph-name="parenleft" unicode="(" 
d="M672 714l-154 -176q0 -5 4 -6.5t12 -3t10 -1.5h12.5h13.5q3 -12 3 -49q-6 -8 -23.5 -8.5t-34.5 -0.5q-3 -2 -6 -6q-8 -53 -23 -158l171 -209q-9 -13 -30 -26l-145 162q-8 -5 -8 -15q0 -7 13 -21t16 -22q5 -22 5 -27q0 -13 -12.5 -33t-25.5 -23q-24 -6 -30 -6q-8 0 -25 8
q-20 9 -25 20q-6 15 -13 24q-5 3 -26 3q-1 0 -22.5 -1.5t-34.5 -1.5q-7 0 -11 -4v-27q0 -3 -1.5 -5t-1.5 -3q-8 -3 -26 -3q-3 0 -23 1q-5 6 -5 18q0 16 -1 19q-5 3 -13 10q0 12 -5 37q-17 -9 -58.5 -59.5t-48.5 -50.5q-4 0 -16 11t-12 15q0 7 24 33q37 39 104 119q1 1 1 23
q0 3 -3 40q-4 44 -5 61q-7 87 -15 173q-1 12 -3 32q-2 10 -26 9q0 10 -4 29l-41.5 47.5t-41.5 52.5q0 3 11.5 14t18.5 14l99 -102q21 1 21.5 24t15.5 23q12 0 16.5 -15t10.5 -15q17 0 44 12q1 11 4 33h88q7 -3 8 -15q0 -7 1 -15q0 -1 4 -4q15 -2 54 -9q36 -7 38 -7
q7 0 16 15t28 15q14 0 29 -12l72 72q4 0 15.5 -11t15.5 -18zM429 -16q-6 -1 -17 -5v-33q4 -3 14 -2l1.5 -7.5t1.5 -14.5q-3 0 -10.5 -1.5t-10.5 -1.5q-25 0 -28 20.5t-4 39.5q-1 2 -9 2v25h9q3 0 3 5q-1 9 -1 8q7 5 31 17q3 -10 3 -28q6 -1 17 -5v-19zM359 9h-36v-87h-37v86
q-19 1 -38 -1l3 30h108v-28zM548 655q-1 0 -5.5 1.5t-8.5 1.5l-6 -7q0 -4 6 -10h11zM548 498q-2 7 -15 7q-12 -1 -20 -7q6 -5 6 -6q24 0 29 6zM362 672v4h-27v-4h27zM469 626q-50 17 -107 17q-24 0 -86 -8q-8 -3 -23 -8zM488 583l-206 3q-27 1 -41 -6q32 -39 73 -80
q0 10 5 14h82q18 -1 24 -2q4 0 3 0q5 0 32 33.5t28 37.5zM402 480q0 6 -6 12q-19 0 -56 -1v-13q3 -1 48 -1q10 0 14 3zM483 494q-84 -83 -84 -95q0 -5 27 -35.5t32 -30.5t6 3zM374 447q-1 0 -5.5 1.5t-5.5 1.5q-4 -6 0 -10q5 0 11 7zM330 400q0 6 -55 67.5t-69 71.5v-31
l23 -222q18 16 59.5 61.5t41.5 52.5zM451 259q0 9 -39 53.5t-48 48.5l-131 -150q3 -12 4 -41q22 -5 73 -5q53 0 71 3q20 34 51 43q19 6 19 48zM484 150q0 13 -13 26t-26 13q-18 0 -29.5 -12.5t-11.5 -27.5q0 -17 11.5 -28t27.5 -11q15 0 28 11t13 29zM263 124q-2 5 -9 13
q-3 -1 -8 -5v-14q1 0 5.5 -1.5t5.5 -1.5q1 1 3 4t3 5zM469 150q0 -25 -25 -25t-25 24q0 26 25 26q9 0 17 -8.5t8 -16.5z" />
    <glyph glyph-name="parenright" unicode=")" 
d="M672 714l-154 -176q0 -5 4 -6.5t12 -3t10 -1.5h12.5h13.5q3 -12 3 -49q-6 -8 -23.5 -8.5t-34.5 -0.5q-3 -2 -6 -6q-8 -53 -23 -158l171 -209q-9 -13 -30 -26l-145 162q-8 -5 -8 -15q0 -7 13 -21t16 -22q5 -22 5 -27q0 -13 -12.5 -33t-25.5 -23q-24 -6 -30 -6q-8 0 -25 8
q-20 9 -25 20q-6 15 -13 24q-5 3 -26 3q-1 0 -22.5 -1.5t-34.5 -1.5q-7 0 -11 -4v-27q0 -3 -1.5 -5t-1.5 -3q-8 -3 -26 -3q-3 0 -23 1q-5 6 -5 18q0 16 -1 19q-5 3 -13 10q0 12 -5 37q-17 -9 -58.5 -59.5t-48.5 -50.5q-4 0 -16 11t-12 15q0 7 24 33q37 39 104 119q1 1 1 23
q0 3 -3 40q-4 44 -5 61q-7 87 -15 173q-1 12 -3 32q-2 10 -26 9q0 10 -4 29l-41.5 47.5t-41.5 52.5q0 3 11.5 14t18.5 14l99 -102q21 1 21.5 24t15.5 23q12 0 16.5 -15t10.5 -15q17 0 44 12q1 11 4 33h88q7 -3 8 -15q0 -7 1 -15q0 -1 4 -4q15 -2 54 -9q36 -7 38 -7
q7 0 16 15t28 15q14 0 29 -12l72 72q4 0 15.5 -11t15.5 -18zM429 -16q-6 -1 -17 -5v-33q4 -3 14 -2l1.5 -7.5t1.5 -14.5q-3 0 -10.5 -1.5t-10.5 -1.5q-25 0 -28 20.5t-4 39.5q-1 2 -9 2v25h9q3 0 3 5q-1 9 -1 8q7 5 31 17q3 -10 3 -28q6 -1 17 -5v-19zM359 9h-36v-87h-37v86
q-19 1 -38 -1l3 30h108v-28zM548 655q-1 0 -5.5 1.5t-8.5 1.5l-6 -7q0 -4 6 -10h11zM548 498q-2 7 -15 7q-12 -1 -20 -7q6 -5 6 -6q24 0 29 6zM362 672v4h-27v-4h27zM469 626q-50 17 -107 17q-24 0 -86 -8q-8 -3 -23 -8zM488 583l-206 3q-27 1 -41 -6q32 -39 73 -80
q0 10 5 14h82q18 -1 24 -2q4 0 3 0q5 0 32 33.5t28 37.5zM402 480q0 6 -6 12q-19 0 -56 -1v-13q3 -1 48 -1q10 0 14 3zM483 494q-84 -83 -84 -95q0 -5 27 -35.5t32 -30.5t6 3zM374 447q-1 0 -5.5 1.5t-5.5 1.5q-4 -6 0 -10q5 0 11 7zM330 400q0 6 -55 67.5t-69 71.5v-31
l23 -222q18 16 59.5 61.5t41.5 52.5zM451 259q0 9 -39 53.5t-48 48.5l-131 -150q3 -12 4 -41q22 -5 73 -5q53 0 71 3q20 34 51 43q19 6 19 48zM484 150q0 13 -13 26t-26 13q-18 0 -29.5 -12.5t-11.5 -27.5q0 -17 11.5 -28t27.5 -11q15 0 28 11t13 29zM263 124q-2 5 -9 13
q-3 -1 -8 -5v-14q1 0 5.5 -1.5t5.5 -1.5q1 1 3 4t3 5zM469 150q0 -25 -25 -25t-25 24q0 26 25 26q9 0 17 -8.5t8 -16.5z" />
    <glyph glyph-name="asterisk" unicode="*" 
d="M672 714l-154 -176q0 -5 4 -6.5t12 -3t10 -1.5h12.5h13.5q3 -12 3 -49q-6 -8 -23.5 -8.5t-34.5 -0.5q-3 -2 -6 -6q-8 -53 -23 -158l171 -209q-9 -13 -30 -26l-145 162q-8 -5 -8 -15q0 -7 13 -21t16 -22q5 -22 5 -27q0 -13 -12.5 -33t-25.5 -23q-24 -6 -30 -6q-8 0 -25 8
q-20 9 -25 20q-6 15 -13 24q-5 3 -26 3q-1 0 -22.5 -1.5t-34.5 -1.5q-7 0 -11 -4v-27q0 -3 -1.5 -5t-1.5 -3q-8 -3 -26 -3q-3 0 -23 1q-5 6 -5 18q0 16 -1 19q-5 3 -13 10q0 12 -5 37q-17 -9 -58.5 -59.5t-48.5 -50.5q-4 0 -16 11t-12 15q0 7 24 33q37 39 104 119q1 1 1 23
q0 3 -3 40q-4 44 -5 61q-7 87 -15 173q-1 12 -3 32q-2 10 -26 9q0 10 -4 29l-41.5 47.5t-41.5 52.5q0 3 11.5 14t18.5 14l99 -102q21 1 21.5 24t15.5 23q12 0 16.5 -15t10.5 -15q17 0 44 12q1 11 4 33h88q7 -3 8 -15q0 -7 1 -15q0 -1 4 -4q15 -2 54 -9q36 -7 38 -7
q7 0 16 15t28 15q14 0 29 -12l72 72q4 0 15.5 -11t15.5 -18zM429 -16q-6 -1 -17 -5v-33q4 -3 14 -2l1.5 -7.5t1.5 -14.5q-3 0 -10.5 -1.5t-10.5 -1.5q-25 0 -28 20.5t-4 39.5q-1 2 -9 2v25h9q3 0 3 5q-1 9 -1 8q7 5 31 17q3 -10 3 -28q6 -1 17 -5v-19zM359 9h-36v-87h-37v86
q-19 1 -38 -1l3 30h108v-28zM548 655q-1 0 -5.5 1.5t-8.5 1.5l-6 -7q0 -4 6 -10h11zM548 498q-2 7 -15 7q-12 -1 -20 -7q6 -5 6 -6q24 0 29 6zM362 672v4h-27v-4h27zM469 626q-50 17 -107 17q-24 0 -86 -8q-8 -3 -23 -8zM488 583l-206 3q-27 1 -41 -6q32 -39 73 -80
q0 10 5 14h82q18 -1 24 -2q4 0 3 0q5 0 32 33.5t28 37.5zM402 480q0 6 -6 12q-19 0 -56 -1v-13q3 -1 48 -1q10 0 14 3zM483 494q-84 -83 -84 -95q0 -5 27 -35.5t32 -30.5t6 3zM374 447q-1 0 -5.5 1.5t-5.5 1.5q-4 -6 0 -10q5 0 11 7zM330 400q0 6 -55 67.5t-69 71.5v-31
l23 -222q18 16 59.5 61.5t41.5 52.5zM451 259q0 9 -39 53.5t-48 48.5l-131 -150q3 -12 4 -41q22 -5 73 -5q53 0 71 3q20 34 51 43q19 6 19 48zM484 150q0 13 -13 26t-26 13q-18 0 -29.5 -12.5t-11.5 -27.5q0 -17 11.5 -28t27.5 -11q15 0 28 11t13 29zM263 124q-2 5 -9 13
q-3 -1 -8 -5v-14q1 0 5.5 -1.5t5.5 -1.5q1 1 3 4t3 5zM469 150q0 -25 -25 -25t-25 24q0 26 25 26q9 0 17 -8.5t8 -16.5z" />
    <glyph glyph-name="plus" unicode="+" 
d="M672 714l-154 -176q0 -5 4 -6.5t12 -3t10 -1.5h12.5h13.5q3 -12 3 -49q-6 -8 -23.5 -8.5t-34.5 -0.5q-3 -2 -6 -6q-8 -53 -23 -158l171 -209q-9 -13 -30 -26l-145 162q-8 -5 -8 -15q0 -7 13 -21t16 -22q5 -22 5 -27q0 -13 -12.5 -33t-25.5 -23q-24 -6 -30 -6q-8 0 -25 8
q-20 9 -25 20q-6 15 -13 24q-5 3 -26 3q-1 0 -22.5 -1.5t-34.5 -1.5q-7 0 -11 -4v-27q0 -3 -1.5 -5t-1.5 -3q-8 -3 -26 -3q-3 0 -23 1q-5 6 -5 18q0 16 -1 19q-5 3 -13 10q0 12 -5 37q-17 -9 -58.5 -59.5t-48.5 -50.5q-4 0 -16 11t-12 15q0 7 24 33q37 39 104 119q1 1 1 23
q0 3 -3 40q-4 44 -5 61q-7 87 -15 173q-1 12 -3 32q-2 10 -26 9q0 10 -4 29l-41.5 47.5t-41.5 52.5q0 3 11.5 14t18.5 14l99 -102q21 1 21.5 24t15.5 23q12 0 16.5 -15t10.5 -15q17 0 44 12q1 11 4 33h88q7 -3 8 -15q0 -7 1 -15q0 -1 4 -4q15 -2 54 -9q36 -7 38 -7
q7 0 16 15t28 15q14 0 29 -12l72 72q4 0 15.5 -11t15.5 -18zM429 -16q-6 -1 -17 -5v-33q4 -3 14 -2l1.5 -7.5t1.5 -14.5q-3 0 -10.5 -1.5t-10.5 -1.5q-25 0 -28 20.5t-4 39.5q-1 2 -9 2v25h9q3 0 3 5q-1 9 -1 8q7 5 31 17q3 -10 3 -28q6 -1 17 -5v-19zM359 9h-36v-87h-37v86
q-19 1 -38 -1l3 30h108v-28zM548 655q-1 0 -5.5 1.5t-8.5 1.5l-6 -7q0 -4 6 -10h11zM548 498q-2 7 -15 7q-12 -1 -20 -7q6 -5 6 -6q24 0 29 6zM362 672v4h-27v-4h27zM469 626q-50 17 -107 17q-24 0 -86 -8q-8 -3 -23 -8zM488 583l-206 3q-27 1 -41 -6q32 -39 73 -80
q0 10 5 14h82q18 -1 24 -2q4 0 3 0q5 0 32 33.5t28 37.5zM402 480q0 6 -6 12q-19 0 -56 -1v-13q3 -1 48 -1q10 0 14 3zM483 494q-84 -83 -84 -95q0 -5 27 -35.5t32 -30.5t6 3zM374 447q-1 0 -5.5 1.5t-5.5 1.5q-4 -6 0 -10q5 0 11 7zM330 400q0 6 -55 67.5t-69 71.5v-31
l23 -222q18 16 59.5 61.5t41.5 52.5zM451 259q0 9 -39 53.5t-48 48.5l-131 -150q3 -12 4 -41q22 -5 73 -5q53 0 71 3q20 34 51 43q19 6 19 48zM484 150q0 13 -13 26t-26 13q-18 0 -29.5 -12.5t-11.5 -27.5q0 -17 11.5 -28t27.5 -11q15 0 28 11t13 29zM263 124q-2 5 -9 13
q-3 -1 -8 -5v-14q1 0 5.5 -1.5t5.5 -1.5q1 1 3 4t3 5zM469 150q0 -25 -25 -25t-25 24q0 26 25 26q9 0 17 -8.5t8 -16.5z" />
    <glyph glyph-name="comma" unicode="," horiz-adv-x="307" 
d="M200 -4q0 -17 -28 -85q-31 -73 -51 -87q-22 36 -9 77q-15 23 -29 47t-14 42q0 24 15.5 42t37.5 18q25 0 51.5 -16.5t26.5 -37.5z" />
    <glyph glyph-name="hyphen" unicode="-" horiz-adv-x="405" 
d="M388 365q-13 -14 -13 -51q-41 0 -131 -7t-100 -7q-49 0 -77 26v91q38 38 71 38q13 0 80 -12q75 -14 105 -17q15 -1 35 -21.5t30 -39.5z" />
    <glyph glyph-name="hyphen" unicode="&#x2010;" horiz-adv-x="405" 
d="M388 365q-13 -14 -13 -51q-41 0 -131 -7t-100 -7q-49 0 -77 26v91q38 38 71 38q13 0 80 -12q75 -14 105 -17q15 -1 35 -21.5t30 -39.5z" />
    <glyph glyph-name="period" unicode="." horiz-adv-x="199" 
d="M214 -67q-20 -7 -64 -38q-24 10 -49 30q-29 25 -29 42q0 59 71 59q18 0 36 -8.5t35 -16.5v-68z" />
    <glyph glyph-name="slash" unicode="/" 
d="M672 714l-154 -176q0 -5 4 -6.5t12 -3t10 -1.5h12.5h13.5q3 -12 3 -49q-6 -8 -23.5 -8.5t-34.5 -0.5q-3 -2 -6 -6q-8 -53 -23 -158l171 -209q-9 -13 -30 -26l-145 162q-8 -5 -8 -15q0 -7 13 -21t16 -22q5 -22 5 -27q0 -13 -12.5 -33t-25.5 -23q-24 -6 -30 -6q-8 0 -25 8
q-20 9 -25 20q-6 15 -13 24q-5 3 -26 3q-1 0 -22.5 -1.5t-34.5 -1.5q-7 0 -11 -4v-27q0 -3 -1.5 -5t-1.5 -3q-8 -3 -26 -3q-3 0 -23 1q-5 6 -5 18q0 16 -1 19q-5 3 -13 10q0 12 -5 37q-17 -9 -58.5 -59.5t-48.5 -50.5q-4 0 -16 11t-12 15q0 7 24 33q37 39 104 119q1 1 1 23
q0 3 -3 40q-4 44 -5 61q-7 87 -15 173q-1 12 -3 32q-2 10 -26 9q0 10 -4 29l-41.5 47.5t-41.5 52.5q0 3 11.5 14t18.5 14l99 -102q21 1 21.5 24t15.5 23q12 0 16.5 -15t10.5 -15q17 0 44 12q1 11 4 33h88q7 -3 8 -15q0 -7 1 -15q0 -1 4 -4q15 -2 54 -9q36 -7 38 -7
q7 0 16 15t28 15q14 0 29 -12l72 72q4 0 15.5 -11t15.5 -18zM429 -16q-6 -1 -17 -5v-33q4 -3 14 -2l1.5 -7.5t1.5 -14.5q-3 0 -10.5 -1.5t-10.5 -1.5q-25 0 -28 20.5t-4 39.5q-1 2 -9 2v25h9q3 0 3 5q-1 9 -1 8q7 5 31 17q3 -10 3 -28q6 -1 17 -5v-19zM359 9h-36v-87h-37v86
q-19 1 -38 -1l3 30h108v-28zM548 655q-1 0 -5.5 1.5t-8.5 1.5l-6 -7q0 -4 6 -10h11zM548 498q-2 7 -15 7q-12 -1 -20 -7q6 -5 6 -6q24 0 29 6zM362 672v4h-27v-4h27zM469 626q-50 17 -107 17q-24 0 -86 -8q-8 -3 -23 -8zM488 583l-206 3q-27 1 -41 -6q32 -39 73 -80
q0 10 5 14h82q18 -1 24 -2q4 0 3 0q5 0 32 33.5t28 37.5zM402 480q0 6 -6 12q-19 0 -56 -1v-13q3 -1 48 -1q10 0 14 3zM483 494q-84 -83 -84 -95q0 -5 27 -35.5t32 -30.5t6 3zM374 447q-1 0 -5.5 1.5t-5.5 1.5q-4 -6 0 -10q5 0 11 7zM330 400q0 6 -55 67.5t-69 71.5v-31
l23 -222q18 16 59.5 61.5t41.5 52.5zM451 259q0 9 -39 53.5t-48 48.5l-131 -150q3 -12 4 -41q22 -5 73 -5q53 0 71 3q20 34 51 43q19 6 19 48zM484 150q0 13 -13 26t-26 13q-18 0 -29.5 -12.5t-11.5 -27.5q0 -17 11.5 -28t27.5 -11q15 0 28 11t13 29zM263 124q-2 5 -9 13
q-3 -1 -8 -5v-14q1 0 5.5 -1.5t5.5 -1.5q1 1 3 4t3 5zM469 150q0 -25 -25 -25t-25 24q0 26 25 26q9 0 17 -8.5t8 -16.5z" />
    <glyph glyph-name="zero" unicode="0" 
d="M685 714l-154 -176q0 -5 3.5 -6.5t11.5 -3t11 -1.5h12.5h13.5q2 -12 2 -49q-5 -8 -23 -8.5t-34 -0.5q-4 -2 -6 -6q-8 -53 -23 -158l171 -209q-10 -13 -30 -26l-145 162q-9 -5 -9 -15q0 -7 13.5 -21t15.5 -22q6 -22 6 -27q0 -13 -12.5 -33t-25.5 -23q-24 -6 -30 -6
q-9 0 -25 8q-20 9 -25 20q-7 15 -13 24q-6 3 -27 3l-22 -1.5t-35 -1.5q-7 0 -9 -2.5t-2 -28.5q0 -3 -1 -5t-1 -3q-9 -3 -26 -3q-4 0 -23 1q-6 6 -6 18q0 16 -1 19q-4 3 -13 10q0 12 -5 37q-16 -9 -58 -59.5t-48 -50.5q-4 0 -16.5 11t-12.5 15q0 7 25 33q36 39 104 119v23
q0 3 -3 40q-4 44 -5 61q-6 87 -15 173q0 12 -2 32q-3 10 -26 9q-1 10 -4 29l-42 47.5t-42 52.5q0 3 11.5 14t19.5 14l99 -102q21 1 21 24t16 23q12 0 16.5 -15t10.5 -15q16 0 44 12q1 11 4 33h87q8 -3 9 -15v-15l4 -4q15 -2 54 -9q36 -7 39 -7q7 0 16 15t27 15q14 0 30 -12
l72 72q4 0 15 -11t16 -18zM441 -16q-6 -1 -17 -5v-33q5 -3 15 -2l1 -7.5t1 -14.5q-2 0 -9.5 -1.5t-10.5 -1.5q-26 0 -28.5 20.5t-3.5 39.5q-2 2 -9 2v25h8q3 0 3 5q-1 9 -1 8q7 5 31 17q3 -10 3 -28q6 -1 17 -5v-19zM372 9h-36v-87h-38v86q-18 1 -37 -1l2 30h109v-28z
M560 655l-4.5 1.5t-9.5 1.5l-5 -7q0 -4 5 -10h12zM561 498q-3 7 -15 7q-12 -1 -20 -7q5 -5 5 -6q24 0 30 6zM374 672v4h-26v-4h26zM481 626q-49 17 -106 17q-25 0 -86 -8q-8 -3 -23 -8zM501 583l-207 3q-26 1 -41 -6q32 -39 74 -80q0 10 5 14h81q19 -1 24 -2q4 0 3 0
q6 0 33 33.5t28 37.5zM414 480q0 6 -5 12q-20 0 -56 -1v-13q2 -1 48 -1q10 0 13 3zM495 494q-83 -83 -83 -95q0 -5 27 -35.5t31 -30.5q6 0 6 3zM387 447q-1 0 -5.5 1.5t-6.5 1.5q-4 -6 0 -10q5 0 12 7zM342 400q0 6 -54.5 67.5t-68.5 71.5v-31l22 -222q19 16 60 61.5
t41 52.5zM464 259q0 9 -39.5 53.5t-47.5 48.5l-131 -150q2 -12 3 -41q23 -5 74 -5q53 0 71 3q19 34 50 43q20 6 20 48zM496 150q0 13 -12.5 26t-25.5 13q-19 0 -30 -12.5t-11 -27.5q0 -17 11 -28t27 -11q15 0 28 11t13 29zM275 124q-2 5 -8 13q-3 -1 -9 -5v-14q2 0 6 -1.5
t6 -1.5q1 1 2.5 4zM481 150q0 -25 -25 -25q-24 0 -24 24q0 26 24 26q10 0 17.5 -8.5t7.5 -16.5z" />
    <glyph glyph-name="one" unicode="1" 
d="M685 714l-154 -176q0 -5 3.5 -6.5t11.5 -3t11 -1.5h12.5h13.5q2 -12 2 -49q-5 -8 -23 -8.5t-34 -0.5q-4 -2 -6 -6q-8 -53 -23 -158l171 -209q-10 -13 -30 -26l-145 162q-9 -5 -9 -15q0 -7 13.5 -21t15.5 -22q6 -22 6 -27q0 -13 -12.5 -33t-25.5 -23q-24 -6 -30 -6
q-9 0 -25 8q-20 9 -25 20q-7 15 -13 24q-6 3 -27 3l-22 -1.5t-35 -1.5q-7 0 -9 -2.5t-2 -28.5q0 -3 -1 -5t-1 -3q-9 -3 -26 -3q-4 0 -23 1q-6 6 -6 18q0 16 -1 19q-4 3 -13 10q0 12 -5 37q-16 -9 -58 -59.5t-48 -50.5q-4 0 -16.5 11t-12.5 15q0 7 25 33q36 39 104 119v23
q0 3 -3 40q-4 44 -5 61q-6 87 -15 173q0 12 -2 32q-3 10 -26 9q-1 10 -4 29l-42 47.5t-42 52.5q0 3 11.5 14t19.5 14l99 -102q21 1 21 24t16 23q12 0 16.5 -15t10.5 -15q16 0 44 12q1 11 4 33h87q8 -3 9 -15v-15l4 -4q15 -2 54 -9q36 -7 39 -7q7 0 16 15t27 15q14 0 30 -12
l72 72q4 0 15 -11t16 -18zM441 -16q-6 -1 -17 -5v-33q5 -3 15 -2l1 -7.5t1 -14.5q-2 0 -9.5 -1.5t-10.5 -1.5q-26 0 -28.5 20.5t-3.5 39.5q-2 2 -9 2v25h8q3 0 3 5q-1 9 -1 8q7 5 31 17q3 -10 3 -28q6 -1 17 -5v-19zM372 9h-36v-87h-38v86q-18 1 -37 -1l2 30h109v-28z
M560 655l-4.5 1.5t-9.5 1.5l-5 -7q0 -4 5 -10h12zM561 498q-3 7 -15 7q-12 -1 -20 -7q5 -5 5 -6q24 0 30 6zM374 672v4h-26v-4h26zM481 626q-49 17 -106 17q-25 0 -86 -8q-8 -3 -23 -8zM501 583l-207 3q-26 1 -41 -6q32 -39 74 -80q0 10 5 14h81q19 -1 24 -2q4 0 3 0
q6 0 33 33.5t28 37.5zM414 480q0 6 -5 12q-20 0 -56 -1v-13q2 -1 48 -1q10 0 13 3zM495 494q-83 -83 -83 -95q0 -5 27 -35.5t31 -30.5q6 0 6 3zM387 447q-1 0 -5.5 1.5t-6.5 1.5q-4 -6 0 -10q5 0 12 7zM342 400q0 6 -54.5 67.5t-68.5 71.5v-31l22 -222q19 16 60 61.5
t41 52.5zM464 259q0 9 -39.5 53.5t-47.5 48.5l-131 -150q2 -12 3 -41q23 -5 74 -5q53 0 71 3q19 34 50 43q20 6 20 48zM496 150q0 13 -12.5 26t-25.5 13q-19 0 -30 -12.5t-11 -27.5q0 -17 11 -28t27 -11q15 0 28 11t13 29zM275 124q-2 5 -8 13q-3 -1 -9 -5v-14q2 0 6 -1.5
t6 -1.5q1 1 2.5 4zM481 150q0 -25 -25 -25q-24 0 -24 24q0 26 24 26q10 0 17.5 -8.5t7.5 -16.5z" />
    <glyph glyph-name="two" unicode="2" 
d="M685 714l-154 -176q0 -5 3.5 -6.5t11.5 -3t11 -1.5h12.5h13.5q2 -12 2 -49q-5 -8 -23 -8.5t-34 -0.5q-4 -2 -6 -6q-8 -53 -23 -158l171 -209q-10 -13 -30 -26l-145 162q-9 -5 -9 -15q0 -7 13.5 -21t15.5 -22q6 -22 6 -27q0 -13 -12.5 -33t-25.5 -23q-24 -6 -30 -6
q-9 0 -25 8q-20 9 -25 20q-7 15 -13 24q-6 3 -27 3l-22 -1.5t-35 -1.5q-7 0 -9 -2.5t-2 -28.5q0 -3 -1 -5t-1 -3q-9 -3 -26 -3q-4 0 -23 1q-6 6 -6 18q0 16 -1 19q-4 3 -13 10q0 12 -5 37q-16 -9 -58 -59.5t-48 -50.5q-4 0 -16.5 11t-12.5 15q0 7 25 33q36 39 104 119v23
q0 3 -3 40q-4 44 -5 61q-6 87 -15 173q0 12 -2 32q-3 10 -26 9q-1 10 -4 29l-42 47.5t-42 52.5q0 3 11.5 14t19.5 14l99 -102q21 1 21 24t16 23q12 0 16.5 -15t10.5 -15q16 0 44 12q1 11 4 33h87q8 -3 9 -15v-15l4 -4q15 -2 54 -9q36 -7 39 -7q7 0 16 15t27 15q14 0 30 -12
l72 72q4 0 15 -11t16 -18zM441 -16q-6 -1 -17 -5v-33q5 -3 15 -2l1 -7.5t1 -14.5q-2 0 -9.5 -1.5t-10.5 -1.5q-26 0 -28.5 20.5t-3.5 39.5q-2 2 -9 2v25h8q3 0 3 5q-1 9 -1 8q7 5 31 17q3 -10 3 -28q6 -1 17 -5v-19zM372 9h-36v-87h-38v86q-18 1 -37 -1l2 30h109v-28z
M560 655l-4.5 1.5t-9.5 1.5l-5 -7q0 -4 5 -10h12zM561 498q-3 7 -15 7q-12 -1 -20 -7q5 -5 5 -6q24 0 30 6zM374 672v4h-26v-4h26zM481 626q-49 17 -106 17q-25 0 -86 -8q-8 -3 -23 -8zM501 583l-207 3q-26 1 -41 -6q32 -39 74 -80q0 10 5 14h81q19 -1 24 -2q4 0 3 0
q6 0 33 33.5t28 37.5zM414 480q0 6 -5 12q-20 0 -56 -1v-13q2 -1 48 -1q10 0 13 3zM495 494q-83 -83 -83 -95q0 -5 27 -35.5t31 -30.5q6 0 6 3zM387 447q-1 0 -5.5 1.5t-6.5 1.5q-4 -6 0 -10q5 0 12 7zM342 400q0 6 -54.5 67.5t-68.5 71.5v-31l22 -222q19 16 60 61.5
t41 52.5zM464 259q0 9 -39.5 53.5t-47.5 48.5l-131 -150q2 -12 3 -41q23 -5 74 -5q53 0 71 3q19 34 50 43q20 6 20 48zM496 150q0 13 -12.5 26t-25.5 13q-19 0 -30 -12.5t-11 -27.5q0 -17 11 -28t27 -11q15 0 28 11t13 29zM275 124q-2 5 -8 13q-3 -1 -9 -5v-14q2 0 6 -1.5
t6 -1.5q1 1 2.5 4zM481 150q0 -25 -25 -25q-24 0 -24 24q0 26 24 26q10 0 17.5 -8.5t7.5 -16.5z" />
    <glyph glyph-name="three" unicode="3" 
d="M685 714l-154 -176q0 -5 3.5 -6.5t11.5 -3t11 -1.5h12.5h13.5q2 -12 2 -49q-5 -8 -23 -8.5t-34 -0.5q-4 -2 -6 -6q-8 -53 -23 -158l171 -209q-10 -13 -30 -26l-145 162q-9 -5 -9 -15q0 -7 13.5 -21t15.5 -22q6 -22 6 -27q0 -13 -12.5 -33t-25.5 -23q-24 -6 -30 -6
q-9 0 -25 8q-20 9 -25 20q-7 15 -13 24q-6 3 -27 3l-22 -1.5t-35 -1.5q-7 0 -9 -2.5t-2 -28.5q0 -3 -1 -5t-1 -3q-9 -3 -26 -3q-4 0 -23 1q-6 6 -6 18q0 16 -1 19q-4 3 -13 10q0 12 -5 37q-16 -9 -58 -59.5t-48 -50.5q-4 0 -16.5 11t-12.5 15q0 7 25 33q36 39 104 119v23
q0 3 -3 40q-4 44 -5 61q-6 87 -15 173q0 12 -2 32q-3 10 -26 9q-1 10 -4 29l-42 47.5t-42 52.5q0 3 11.5 14t19.5 14l99 -102q21 1 21 24t16 23q12 0 16.5 -15t10.5 -15q16 0 44 12q1 11 4 33h87q8 -3 9 -15v-15l4 -4q15 -2 54 -9q36 -7 39 -7q7 0 16 15t27 15q14 0 30 -12
l72 72q4 0 15 -11t16 -18zM441 -16q-6 -1 -17 -5v-33q5 -3 15 -2l1 -7.5t1 -14.5q-2 0 -9.5 -1.5t-10.5 -1.5q-26 0 -28.5 20.5t-3.5 39.5q-2 2 -9 2v25h8q3 0 3 5q-1 9 -1 8q7 5 31 17q3 -10 3 -28q6 -1 17 -5v-19zM372 9h-36v-87h-38v86q-18 1 -37 -1l2 30h109v-28z
M560 655l-4.5 1.5t-9.5 1.5l-5 -7q0 -4 5 -10h12zM561 498q-3 7 -15 7q-12 -1 -20 -7q5 -5 5 -6q24 0 30 6zM374 672v4h-26v-4h26zM481 626q-49 17 -106 17q-25 0 -86 -8q-8 -3 -23 -8zM501 583l-207 3q-26 1 -41 -6q32 -39 74 -80q0 10 5 14h81q19 -1 24 -2q4 0 3 0
q6 0 33 33.5t28 37.5zM414 480q0 6 -5 12q-20 0 -56 -1v-13q2 -1 48 -1q10 0 13 3zM495 494q-83 -83 -83 -95q0 -5 27 -35.5t31 -30.5q6 0 6 3zM387 447q-1 0 -5.5 1.5t-6.5 1.5q-4 -6 0 -10q5 0 12 7zM342 400q0 6 -54.5 67.5t-68.5 71.5v-31l22 -222q19 16 60 61.5
t41 52.5zM464 259q0 9 -39.5 53.5t-47.5 48.5l-131 -150q2 -12 3 -41q23 -5 74 -5q53 0 71 3q19 34 50 43q20 6 20 48zM496 150q0 13 -12.5 26t-25.5 13q-19 0 -30 -12.5t-11 -27.5q0 -17 11 -28t27 -11q15 0 28 11t13 29zM275 124q-2 5 -8 13q-3 -1 -9 -5v-14q2 0 6 -1.5
t6 -1.5q1 1 2.5 4zM481 150q0 -25 -25 -25q-24 0 -24 24q0 26 24 26q10 0 17.5 -8.5t7.5 -16.5z" />
    <glyph glyph-name="four" unicode="4" 
d="M685 714l-154 -176q0 -5 3.5 -6.5t11.5 -3t11 -1.5h12.5h13.5q2 -12 2 -49q-5 -8 -23 -8.5t-34 -0.5q-4 -2 -6 -6q-8 -53 -23 -158l171 -209q-10 -13 -30 -26l-145 162q-9 -5 -9 -15q0 -7 13.5 -21t15.5 -22q6 -22 6 -27q0 -13 -12.5 -33t-25.5 -23q-24 -6 -30 -6
q-9 0 -25 8q-20 9 -25 20q-7 15 -13 24q-6 3 -27 3l-22 -1.5t-35 -1.5q-7 0 -9 -2.5t-2 -28.5q0 -3 -1 -5t-1 -3q-9 -3 -26 -3q-4 0 -23 1q-6 6 -6 18q0 16 -1 19q-4 3 -13 10q0 12 -5 37q-16 -9 -58 -59.5t-48 -50.5q-4 0 -16.5 11t-12.5 15q0 7 25 33q36 39 104 119v23
q0 3 -3 40q-4 44 -5 61q-6 87 -15 173q0 12 -2 32q-3 10 -26 9q-1 10 -4 29l-42 47.5t-42 52.5q0 3 11.5 14t19.5 14l99 -102q21 1 21 24t16 23q12 0 16.5 -15t10.5 -15q16 0 44 12q1 11 4 33h87q8 -3 9 -15v-15l4 -4q15 -2 54 -9q36 -7 39 -7q7 0 16 15t27 15q14 0 30 -12
l72 72q4 0 15 -11t16 -18zM441 -16q-6 -1 -17 -5v-33q5 -3 15 -2l1 -7.5t1 -14.5q-2 0 -9.5 -1.5t-10.5 -1.5q-26 0 -28.5 20.5t-3.5 39.5q-2 2 -9 2v25h8q3 0 3 5q-1 9 -1 8q7 5 31 17q3 -10 3 -28q6 -1 17 -5v-19zM372 9h-36v-87h-38v86q-18 1 -37 -1l2 30h109v-28z
M560 655l-4.5 1.5t-9.5 1.5l-5 -7q0 -4 5 -10h12zM561 498q-3 7 -15 7q-12 -1 -20 -7q5 -5 5 -6q24 0 30 6zM374 672v4h-26v-4h26zM481 626q-49 17 -106 17q-25 0 -86 -8q-8 -3 -23 -8zM501 583l-207 3q-26 1 -41 -6q32 -39 74 -80q0 10 5 14h81q19 -1 24 -2q4 0 3 0
q6 0 33 33.5t28 37.5zM414 480q0 6 -5 12q-20 0 -56 -1v-13q2 -1 48 -1q10 0 13 3zM495 494q-83 -83 -83 -95q0 -5 27 -35.5t31 -30.5q6 0 6 3zM387 447q-1 0 -5.5 1.5t-6.5 1.5q-4 -6 0 -10q5 0 12 7zM342 400q0 6 -54.5 67.5t-68.5 71.5v-31l22 -222q19 16 60 61.5
t41 52.5zM464 259q0 9 -39.5 53.5t-47.5 48.5l-131 -150q2 -12 3 -41q23 -5 74 -5q53 0 71 3q19 34 50 43q20 6 20 48zM496 150q0 13 -12.5 26t-25.5 13q-19 0 -30 -12.5t-11 -27.5q0 -17 11 -28t27 -11q15 0 28 11t13 29zM275 124q-2 5 -8 13q-3 -1 -9 -5v-14q2 0 6 -1.5
t6 -1.5q1 1 2.5 4zM481 150q0 -25 -25 -25q-24 0 -24 24q0 26 24 26q10 0 17.5 -8.5t7.5 -16.5z" />
    <glyph glyph-name="five" unicode="5" 
d="M685 714l-154 -176q0 -5 3.5 -6.5t11.5 -3t11 -1.5h12.5h13.5q2 -12 2 -49q-5 -8 -23 -8.5t-34 -0.5q-4 -2 -6 -6q-8 -53 -23 -158l171 -209q-10 -13 -30 -26l-145 162q-9 -5 -9 -15q0 -7 13.5 -21t15.5 -22q6 -22 6 -27q0 -13 -12.5 -33t-25.5 -23q-24 -6 -30 -6
q-9 0 -25 8q-20 9 -25 20q-7 15 -13 24q-6 3 -27 3l-22 -1.5t-35 -1.5q-7 0 -9 -2.5t-2 -28.5q0 -3 -1 -5t-1 -3q-9 -3 -26 -3q-4 0 -23 1q-6 6 -6 18q0 16 -1 19q-4 3 -13 10q0 12 -5 37q-16 -9 -58 -59.5t-48 -50.5q-4 0 -16.5 11t-12.5 15q0 7 25 33q36 39 104 119v23
q0 3 -3 40q-4 44 -5 61q-6 87 -15 173q0 12 -2 32q-3 10 -26 9q-1 10 -4 29l-42 47.5t-42 52.5q0 3 11.5 14t19.5 14l99 -102q21 1 21 24t16 23q12 0 16.5 -15t10.5 -15q16 0 44 12q1 11 4 33h87q8 -3 9 -15v-15l4 -4q15 -2 54 -9q36 -7 39 -7q7 0 16 15t27 15q14 0 30 -12
l72 72q4 0 15 -11t16 -18zM441 -16q-6 -1 -17 -5v-33q5 -3 15 -2l1 -7.5t1 -14.5q-2 0 -9.5 -1.5t-10.5 -1.5q-26 0 -28.5 20.5t-3.5 39.5q-2 2 -9 2v25h8q3 0 3 5q-1 9 -1 8q7 5 31 17q3 -10 3 -28q6 -1 17 -5v-19zM372 9h-36v-87h-38v86q-18 1 -37 -1l2 30h109v-28z
M560 655l-4.5 1.5t-9.5 1.5l-5 -7q0 -4 5 -10h12zM561 498q-3 7 -15 7q-12 -1 -20 -7q5 -5 5 -6q24 0 30 6zM374 672v4h-26v-4h26zM481 626q-49 17 -106 17q-25 0 -86 -8q-8 -3 -23 -8zM501 583l-207 3q-26 1 -41 -6q32 -39 74 -80q0 10 5 14h81q19 -1 24 -2q4 0 3 0
q6 0 33 33.5t28 37.5zM414 480q0 6 -5 12q-20 0 -56 -1v-13q2 -1 48 -1q10 0 13 3zM495 494q-83 -83 -83 -95q0 -5 27 -35.5t31 -30.5q6 0 6 3zM387 447q-1 0 -5.5 1.5t-6.5 1.5q-4 -6 0 -10q5 0 12 7zM342 400q0 6 -54.5 67.5t-68.5 71.5v-31l22 -222q19 16 60 61.5
t41 52.5zM464 259q0 9 -39.5 53.5t-47.5 48.5l-131 -150q2 -12 3 -41q23 -5 74 -5q53 0 71 3q19 34 50 43q20 6 20 48zM496 150q0 13 -12.5 26t-25.5 13q-19 0 -30 -12.5t-11 -27.5q0 -17 11 -28t27 -11q15 0 28 11t13 29zM275 124q-2 5 -8 13q-3 -1 -9 -5v-14q2 0 6 -1.5
t6 -1.5q1 1 2.5 4zM481 150q0 -25 -25 -25q-24 0 -24 24q0 26 24 26q10 0 17.5 -8.5t7.5 -16.5z" />
    <glyph glyph-name="six" unicode="6" 
d="M685 714l-154 -176q0 -5 3.5 -6.5t11.5 -3t11 -1.5h12.5h13.5q2 -12 2 -49q-5 -8 -23 -8.5t-34 -0.5q-4 -2 -6 -6q-8 -53 -23 -158l171 -209q-10 -13 -30 -26l-145 162q-9 -5 -9 -15q0 -7 13.5 -21t15.5 -22q6 -22 6 -27q0 -13 -12.5 -33t-25.5 -23q-24 -6 -30 -6
q-9 0 -25 8q-20 9 -25 20q-7 15 -13 24q-6 3 -27 3l-22 -1.5t-35 -1.5q-7 0 -9 -2.5t-2 -28.5q0 -3 -1 -5t-1 -3q-9 -3 -26 -3q-4 0 -23 1q-6 6 -6 18q0 16 -1 19q-4 3 -13 10q0 12 -5 37q-16 -9 -58 -59.5t-48 -50.5q-4 0 -16.5 11t-12.5 15q0 7 25 33q36 39 104 119v23
q0 3 -3 40q-4 44 -5 61q-6 87 -15 173q0 12 -2 32q-3 10 -26 9q-1 10 -4 29l-42 47.5t-42 52.5q0 3 11.5 14t19.5 14l99 -102q21 1 21 24t16 23q12 0 16.5 -15t10.5 -15q16 0 44 12q1 11 4 33h87q8 -3 9 -15v-15l4 -4q15 -2 54 -9q36 -7 39 -7q7 0 16 15t27 15q14 0 30 -12
l72 72q4 0 15 -11t16 -18zM441 -16q-6 -1 -17 -5v-33q5 -3 15 -2l1 -7.5t1 -14.5q-2 0 -9.5 -1.5t-10.5 -1.5q-26 0 -28.5 20.5t-3.5 39.5q-2 2 -9 2v25h8q3 0 3 5q-1 9 -1 8q7 5 31 17q3 -10 3 -28q6 -1 17 -5v-19zM372 9h-36v-87h-38v86q-18 1 -37 -1l2 30h109v-28z
M560 655l-4.5 1.5t-9.5 1.5l-5 -7q0 -4 5 -10h12zM561 498q-3 7 -15 7q-12 -1 -20 -7q5 -5 5 -6q24 0 30 6zM374 672v4h-26v-4h26zM481 626q-49 17 -106 17q-25 0 -86 -8q-8 -3 -23 -8zM501 583l-207 3q-26 1 -41 -6q32 -39 74 -80q0 10 5 14h81q19 -1 24 -2q4 0 3 0
q6 0 33 33.5t28 37.5zM414 480q0 6 -5 12q-20 0 -56 -1v-13q2 -1 48 -1q10 0 13 3zM495 494q-83 -83 -83 -95q0 -5 27 -35.5t31 -30.5q6 0 6 3zM387 447q-1 0 -5.5 1.5t-6.5 1.5q-4 -6 0 -10q5 0 12 7zM342 400q0 6 -54.5 67.5t-68.5 71.5v-31l22 -222q19 16 60 61.5
t41 52.5zM464 259q0 9 -39.5 53.5t-47.5 48.5l-131 -150q2 -12 3 -41q23 -5 74 -5q53 0 71 3q19 34 50 43q20 6 20 48zM496 150q0 13 -12.5 26t-25.5 13q-19 0 -30 -12.5t-11 -27.5q0 -17 11 -28t27 -11q15 0 28 11t13 29zM275 124q-2 5 -8 13q-3 -1 -9 -5v-14q2 0 6 -1.5
t6 -1.5q1 1 2.5 4zM481 150q0 -25 -25 -25q-24 0 -24 24q0 26 24 26q10 0 17.5 -8.5t7.5 -16.5z" />
    <glyph glyph-name="seven" unicode="7" 
d="M685 714l-154 -176q0 -5 3.5 -6.5t11.5 -3t11 -1.5h12.5h13.5q2 -12 2 -49q-5 -8 -23 -8.5t-34 -0.5q-4 -2 -6 -6q-8 -53 -23 -158l171 -209q-10 -13 -30 -26l-145 162q-9 -5 -9 -15q0 -7 13.5 -21t15.5 -22q6 -22 6 -27q0 -13 -12.5 -33t-25.5 -23q-24 -6 -30 -6
q-9 0 -25 8q-20 9 -25 20q-7 15 -13 24q-6 3 -27 3l-22 -1.5t-35 -1.5q-7 0 -9 -2.5t-2 -28.5q0 -3 -1 -5t-1 -3q-9 -3 -26 -3q-4 0 -23 1q-6 6 -6 18q0 16 -1 19q-4 3 -13 10q0 12 -5 37q-16 -9 -58 -59.5t-48 -50.5q-4 0 -16.5 11t-12.5 15q0 7 25 33q36 39 104 119v23
q0 3 -3 40q-4 44 -5 61q-6 87 -15 173q0 12 -2 32q-3 10 -26 9q-1 10 -4 29l-42 47.5t-42 52.5q0 3 11.5 14t19.5 14l99 -102q21 1 21 24t16 23q12 0 16.5 -15t10.5 -15q16 0 44 12q1 11 4 33h87q8 -3 9 -15v-15l4 -4q15 -2 54 -9q36 -7 39 -7q7 0 16 15t27 15q14 0 30 -12
l72 72q4 0 15 -11t16 -18zM441 -16q-6 -1 -17 -5v-33q5 -3 15 -2l1 -7.5t1 -14.5q-2 0 -9.5 -1.5t-10.5 -1.5q-26 0 -28.5 20.5t-3.5 39.5q-2 2 -9 2v25h8q3 0 3 5q-1 9 -1 8q7 5 31 17q3 -10 3 -28q6 -1 17 -5v-19zM372 9h-36v-87h-38v86q-18 1 -37 -1l2 30h109v-28z
M560 655l-4.5 1.5t-9.5 1.5l-5 -7q0 -4 5 -10h12zM561 498q-3 7 -15 7q-12 -1 -20 -7q5 -5 5 -6q24 0 30 6zM374 672v4h-26v-4h26zM481 626q-49 17 -106 17q-25 0 -86 -8q-8 -3 -23 -8zM501 583l-207 3q-26 1 -41 -6q32 -39 74 -80q0 10 5 14h81q19 -1 24 -2q4 0 3 0
q6 0 33 33.5t28 37.5zM414 480q0 6 -5 12q-20 0 -56 -1v-13q2 -1 48 -1q10 0 13 3zM495 494q-83 -83 -83 -95q0 -5 27 -35.5t31 -30.5q6 0 6 3zM387 447q-1 0 -5.5 1.5t-6.5 1.5q-4 -6 0 -10q5 0 12 7zM342 400q0 6 -54.5 67.5t-68.5 71.5v-31l22 -222q19 16 60 61.5
t41 52.5zM464 259q0 9 -39.5 53.5t-47.5 48.5l-131 -150q2 -12 3 -41q23 -5 74 -5q53 0 71 3q19 34 50 43q20 6 20 48zM496 150q0 13 -12.5 26t-25.5 13q-19 0 -30 -12.5t-11 -27.5q0 -17 11 -28t27 -11q15 0 28 11t13 29zM275 124q-2 5 -8 13q-3 -1 -9 -5v-14q2 0 6 -1.5
t6 -1.5q1 1 2.5 4zM481 150q0 -25 -25 -25q-24 0 -24 24q0 26 24 26q10 0 17.5 -8.5t7.5 -16.5z" />
    <glyph glyph-name="eight" unicode="8" 
d="M685 714l-154 -176q0 -5 3.5 -6.5t11.5 -3t11 -1.5h12.5h13.5q2 -12 2 -49q-5 -8 -23 -8.5t-34 -0.5q-4 -2 -6 -6q-8 -53 -23 -158l171 -209q-10 -13 -30 -26l-145 162q-9 -5 -9 -15q0 -7 13.5 -21t15.5 -22q6 -22 6 -27q0 -13 -12.5 -33t-25.5 -23q-24 -6 -30 -6
q-9 0 -25 8q-20 9 -25 20q-7 15 -13 24q-6 3 -27 3l-22 -1.5t-35 -1.5q-7 0 -9 -2.5t-2 -28.5q0 -3 -1 -5t-1 -3q-9 -3 -26 -3q-4 0 -23 1q-6 6 -6 18q0 16 -1 19q-4 3 -13 10q0 12 -5 37q-16 -9 -58 -59.5t-48 -50.5q-4 0 -16.5 11t-12.5 15q0 7 25 33q36 39 104 119v23
q0 3 -3 40q-4 44 -5 61q-6 87 -15 173q0 12 -2 32q-3 10 -26 9q-1 10 -4 29l-42 47.5t-42 52.5q0 3 11.5 14t19.5 14l99 -102q21 1 21 24t16 23q12 0 16.5 -15t10.5 -15q16 0 44 12q1 11 4 33h87q8 -3 9 -15v-15l4 -4q15 -2 54 -9q36 -7 39 -7q7 0 16 15t27 15q14 0 30 -12
l72 72q4 0 15 -11t16 -18zM441 -16q-6 -1 -17 -5v-33q5 -3 15 -2l1 -7.5t1 -14.5q-2 0 -9.5 -1.5t-10.5 -1.5q-26 0 -28.5 20.5t-3.5 39.5q-2 2 -9 2v25h8q3 0 3 5q-1 9 -1 8q7 5 31 17q3 -10 3 -28q6 -1 17 -5v-19zM372 9h-36v-87h-38v86q-18 1 -37 -1l2 30h109v-28z
M560 655l-4.5 1.5t-9.5 1.5l-5 -7q0 -4 5 -10h12zM561 498q-3 7 -15 7q-12 -1 -20 -7q5 -5 5 -6q24 0 30 6zM374 672v4h-26v-4h26zM481 626q-49 17 -106 17q-25 0 -86 -8q-8 -3 -23 -8zM501 583l-207 3q-26 1 -41 -6q32 -39 74 -80q0 10 5 14h81q19 -1 24 -2q4 0 3 0
q6 0 33 33.5t28 37.5zM414 480q0 6 -5 12q-20 0 -56 -1v-13q2 -1 48 -1q10 0 13 3zM495 494q-83 -83 -83 -95q0 -5 27 -35.5t31 -30.5q6 0 6 3zM387 447q-1 0 -5.5 1.5t-6.5 1.5q-4 -6 0 -10q5 0 12 7zM342 400q0 6 -54.5 67.5t-68.5 71.5v-31l22 -222q19 16 60 61.5
t41 52.5zM464 259q0 9 -39.5 53.5t-47.5 48.5l-131 -150q2 -12 3 -41q23 -5 74 -5q53 0 71 3q19 34 50 43q20 6 20 48zM496 150q0 13 -12.5 26t-25.5 13q-19 0 -30 -12.5t-11 -27.5q0 -17 11 -28t27 -11q15 0 28 11t13 29zM275 124q-2 5 -8 13q-3 -1 -9 -5v-14q2 0 6 -1.5
t6 -1.5q1 1 2.5 4zM481 150q0 -25 -25 -25q-24 0 -24 24q0 26 24 26q10 0 17.5 -8.5t7.5 -16.5z" />
    <glyph glyph-name="nine" unicode="9" 
d="M685 714l-154 -176q0 -5 3.5 -6.5t11.5 -3t11 -1.5h12.5h13.5q2 -12 2 -49q-5 -8 -23 -8.5t-34 -0.5q-4 -2 -6 -6q-8 -53 -23 -158l171 -209q-10 -13 -30 -26l-145 162q-9 -5 -9 -15q0 -7 13.5 -21t15.5 -22q6 -22 6 -27q0 -13 -12.5 -33t-25.5 -23q-24 -6 -30 -6
q-9 0 -25 8q-20 9 -25 20q-7 15 -13 24q-6 3 -27 3l-22 -1.5t-35 -1.5q-7 0 -9 -2.5t-2 -28.5q0 -3 -1 -5t-1 -3q-9 -3 -26 -3q-4 0 -23 1q-6 6 -6 18q0 16 -1 19q-4 3 -13 10q0 12 -5 37q-16 -9 -58 -59.5t-48 -50.5q-4 0 -16.5 11t-12.5 15q0 7 25 33q36 39 104 119v23
q0 3 -3 40q-4 44 -5 61q-6 87 -15 173q0 12 -2 32q-3 10 -26 9q-1 10 -4 29l-42 47.5t-42 52.5q0 3 11.5 14t19.5 14l99 -102q21 1 21 24t16 23q12 0 16.5 -15t10.5 -15q16 0 44 12q1 11 4 33h87q8 -3 9 -15v-15l4 -4q15 -2 54 -9q36 -7 39 -7q7 0 16 15t27 15q14 0 30 -12
l72 72q4 0 15 -11t16 -18zM441 -16q-6 -1 -17 -5v-33q5 -3 15 -2l1 -7.5t1 -14.5q-2 0 -9.5 -1.5t-10.5 -1.5q-26 0 -28.5 20.5t-3.5 39.5q-2 2 -9 2v25h8q3 0 3 5q-1 9 -1 8q7 5 31 17q3 -10 3 -28q6 -1 17 -5v-19zM372 9h-36v-87h-38v86q-18 1 -37 -1l2 30h109v-28z
M560 655l-4.5 1.5t-9.5 1.5l-5 -7q0 -4 5 -10h12zM561 498q-3 7 -15 7q-12 -1 -20 -7q5 -5 5 -6q24 0 30 6zM374 672v4h-26v-4h26zM481 626q-49 17 -106 17q-25 0 -86 -8q-8 -3 -23 -8zM501 583l-207 3q-26 1 -41 -6q32 -39 74 -80q0 10 5 14h81q19 -1 24 -2q4 0 3 0
q6 0 33 33.5t28 37.5zM414 480q0 6 -5 12q-20 0 -56 -1v-13q2 -1 48 -1q10 0 13 3zM495 494q-83 -83 -83 -95q0 -5 27 -35.5t31 -30.5q6 0 6 3zM387 447q-1 0 -5.5 1.5t-6.5 1.5q-4 -6 0 -10q5 0 12 7zM342 400q0 6 -54.5 67.5t-68.5 71.5v-31l22 -222q19 16 60 61.5
t41 52.5zM464 259q0 9 -39.5 53.5t-47.5 48.5l-131 -150q2 -12 3 -41q23 -5 74 -5q53 0 71 3q19 34 50 43q20 6 20 48zM496 150q0 13 -12.5 26t-25.5 13q-19 0 -30 -12.5t-11 -27.5q0 -17 11 -28t27 -11q15 0 28 11t13 29zM275 124q-2 5 -8 13q-3 -1 -9 -5v-14q2 0 6 -1.5
t6 -1.5q1 1 2.5 4zM481 150q0 -25 -25 -25q-24 0 -24 24q0 26 24 26q10 0 17.5 -8.5t7.5 -16.5z" />
    <glyph glyph-name="colon" unicode=":" 
d="M672 714l-154 -176q0 -5 4 -6.5t12 -3t10 -1.5h12.5h13.5q3 -12 3 -49q-6 -8 -23.5 -8.5t-34.5 -0.5q-3 -2 -6 -6q-8 -53 -23 -158l171 -209q-9 -13 -30 -26l-145 162q-8 -5 -8 -15q0 -7 13 -21t16 -22q5 -22 5 -27q0 -13 -12.5 -33t-25.5 -23q-24 -6 -30 -6q-8 0 -25 8
q-20 9 -25 20q-6 15 -13 24q-5 3 -26 3q-1 0 -22.5 -1.5t-34.5 -1.5q-7 0 -11 -4v-27q0 -3 -1.5 -5t-1.5 -3q-8 -3 -26 -3q-3 0 -23 1q-5 6 -5 18q0 16 -1 19q-5 3 -13 10q0 12 -5 37q-17 -9 -58.5 -59.5t-48.5 -50.5q-4 0 -16 11t-12 15q0 7 24 33q37 39 104 119q1 1 1 23
q0 3 -3 40q-4 44 -5 61q-7 87 -15 173q-1 12 -3 32q-2 10 -26 9q0 10 -4 29l-41.5 47.5t-41.5 52.5q0 3 11.5 14t18.5 14l99 -102q21 1 21.5 24t15.5 23q12 0 16.5 -15t10.5 -15q17 0 44 12q1 11 4 33h88q7 -3 8 -15q0 -7 1 -15q0 -1 4 -4q15 -2 54 -9q36 -7 38 -7
q7 0 16 15t28 15q14 0 29 -12l72 72q4 0 15.5 -11t15.5 -18zM429 -16q-6 -1 -17 -5v-33q4 -3 14 -2l1.5 -7.5t1.5 -14.5q-3 0 -10.5 -1.5t-10.5 -1.5q-25 0 -28 20.5t-4 39.5q-1 2 -9 2v25h9q3 0 3 5q-1 9 -1 8q7 5 31 17q3 -10 3 -28q6 -1 17 -5v-19zM359 9h-36v-87h-37v86
q-19 1 -38 -1l3 30h108v-28zM548 655q-1 0 -5.5 1.5t-8.5 1.5l-6 -7q0 -4 6 -10h11zM548 498q-2 7 -15 7q-12 -1 -20 -7q6 -5 6 -6q24 0 29 6zM362 672v4h-27v-4h27zM469 626q-50 17 -107 17q-24 0 -86 -8q-8 -3 -23 -8zM488 583l-206 3q-27 1 -41 -6q32 -39 73 -80
q0 10 5 14h82q18 -1 24 -2q4 0 3 0q5 0 32 33.5t28 37.5zM402 480q0 6 -6 12q-19 0 -56 -1v-13q3 -1 48 -1q10 0 14 3zM483 494q-84 -83 -84 -95q0 -5 27 -35.5t32 -30.5t6 3zM374 447q-1 0 -5.5 1.5t-5.5 1.5q-4 -6 0 -10q5 0 11 7zM330 400q0 6 -55 67.5t-69 71.5v-31
l23 -222q18 16 59.5 61.5t41.5 52.5zM451 259q0 9 -39 53.5t-48 48.5l-131 -150q3 -12 4 -41q22 -5 73 -5q53 0 71 3q20 34 51 43q19 6 19 48zM484 150q0 13 -13 26t-26 13q-18 0 -29.5 -12.5t-11.5 -27.5q0 -17 11.5 -28t27.5 -11q15 0 28 11t13 29zM263 124q-2 5 -9 13
q-3 -1 -8 -5v-14q1 0 5.5 -1.5t5.5 -1.5q1 1 3 4t3 5zM469 150q0 -25 -25 -25t-25 24q0 26 25 26q9 0 17 -8.5t8 -16.5z" />
    <glyph glyph-name="semicolon" unicode=";" 
d="M672 714l-154 -176q0 -5 4 -6.5t12 -3t10 -1.5h12.5h13.5q3 -12 3 -49q-6 -8 -23.5 -8.5t-34.5 -0.5q-3 -2 -6 -6q-8 -53 -23 -158l171 -209q-9 -13 -30 -26l-145 162q-8 -5 -8 -15q0 -7 13 -21t16 -22q5 -22 5 -27q0 -13 -12.5 -33t-25.5 -23q-24 -6 -30 -6q-8 0 -25 8
q-20 9 -25 20q-6 15 -13 24q-5 3 -26 3q-1 0 -22.5 -1.5t-34.5 -1.5q-7 0 -11 -4v-27q0 -3 -1.5 -5t-1.5 -3q-8 -3 -26 -3q-3 0 -23 1q-5 6 -5 18q0 16 -1 19q-5 3 -13 10q0 12 -5 37q-17 -9 -58.5 -59.5t-48.5 -50.5q-4 0 -16 11t-12 15q0 7 24 33q37 39 104 119q1 1 1 23
q0 3 -3 40q-4 44 -5 61q-7 87 -15 173q-1 12 -3 32q-2 10 -26 9q0 10 -4 29l-41.5 47.5t-41.5 52.5q0 3 11.5 14t18.5 14l99 -102q21 1 21.5 24t15.5 23q12 0 16.5 -15t10.5 -15q17 0 44 12q1 11 4 33h88q7 -3 8 -15q0 -7 1 -15q0 -1 4 -4q15 -2 54 -9q36 -7 38 -7
q7 0 16 15t28 15q14 0 29 -12l72 72q4 0 15.5 -11t15.5 -18zM429 -16q-6 -1 -17 -5v-33q4 -3 14 -2l1.5 -7.5t1.5 -14.5q-3 0 -10.5 -1.5t-10.5 -1.5q-25 0 -28 20.5t-4 39.5q-1 2 -9 2v25h9q3 0 3 5q-1 9 -1 8q7 5 31 17q3 -10 3 -28q6 -1 17 -5v-19zM359 9h-36v-87h-37v86
q-19 1 -38 -1l3 30h108v-28zM548 655q-1 0 -5.5 1.5t-8.5 1.5l-6 -7q0 -4 6 -10h11zM548 498q-2 7 -15 7q-12 -1 -20 -7q6 -5 6 -6q24 0 29 6zM362 672v4h-27v-4h27zM469 626q-50 17 -107 17q-24 0 -86 -8q-8 -3 -23 -8zM488 583l-206 3q-27 1 -41 -6q32 -39 73 -80
q0 10 5 14h82q18 -1 24 -2q4 0 3 0q5 0 32 33.5t28 37.5zM402 480q0 6 -6 12q-19 0 -56 -1v-13q3 -1 48 -1q10 0 14 3zM483 494q-84 -83 -84 -95q0 -5 27 -35.5t32 -30.5t6 3zM374 447q-1 0 -5.5 1.5t-5.5 1.5q-4 -6 0 -10q5 0 11 7zM330 400q0 6 -55 67.5t-69 71.5v-31
l23 -222q18 16 59.5 61.5t41.5 52.5zM451 259q0 9 -39 53.5t-48 48.5l-131 -150q3 -12 4 -41q22 -5 73 -5q53 0 71 3q20 34 51 43q19 6 19 48zM484 150q0 13 -13 26t-26 13q-18 0 -29.5 -12.5t-11.5 -27.5q0 -17 11.5 -28t27.5 -11q15 0 28 11t13 29zM263 124q-2 5 -9 13
q-3 -1 -8 -5v-14q1 0 5.5 -1.5t5.5 -1.5q1 1 3 4t3 5zM469 150q0 -25 -25 -25t-25 24q0 26 25 26q9 0 17 -8.5t8 -16.5z" />
    <glyph glyph-name="less" unicode="&#x3c;" 
d="M672 714l-154 -176q0 -5 4 -6.5t12 -3t10 -1.5h12.5h13.5q3 -12 3 -49q-6 -8 -23.5 -8.5t-34.5 -0.5q-3 -2 -6 -6q-8 -53 -23 -158l171 -209q-9 -13 -30 -26l-145 162q-8 -5 -8 -15q0 -7 13 -21t16 -22q5 -22 5 -27q0 -13 -12.5 -33t-25.5 -23q-24 -6 -30 -6q-8 0 -25 8
q-20 9 -25 20q-6 15 -13 24q-5 3 -26 3q-1 0 -22.5 -1.5t-34.5 -1.5q-7 0 -11 -4v-27q0 -3 -1.5 -5t-1.5 -3q-8 -3 -26 -3q-3 0 -23 1q-5 6 -5 18q0 16 -1 19q-5 3 -13 10q0 12 -5 37q-17 -9 -58.5 -59.5t-48.5 -50.5q-4 0 -16 11t-12 15q0 7 24 33q37 39 104 119q1 1 1 23
q0 3 -3 40q-4 44 -5 61q-7 87 -15 173q-1 12 -3 32q-2 10 -26 9q0 10 -4 29l-41.5 47.5t-41.5 52.5q0 3 11.5 14t18.5 14l99 -102q21 1 21.5 24t15.5 23q12 0 16.5 -15t10.5 -15q17 0 44 12q1 11 4 33h88q7 -3 8 -15q0 -7 1 -15q0 -1 4 -4q15 -2 54 -9q36 -7 38 -7
q7 0 16 15t28 15q14 0 29 -12l72 72q4 0 15.5 -11t15.5 -18zM429 -16q-6 -1 -17 -5v-33q4 -3 14 -2l1.5 -7.5t1.5 -14.5q-3 0 -10.5 -1.5t-10.5 -1.5q-25 0 -28 20.5t-4 39.5q-1 2 -9 2v25h9q3 0 3 5q-1 9 -1 8q7 5 31 17q3 -10 3 -28q6 -1 17 -5v-19zM359 9h-36v-87h-37v86
q-19 1 -38 -1l3 30h108v-28zM548 655q-1 0 -5.5 1.5t-8.5 1.5l-6 -7q0 -4 6 -10h11zM548 498q-2 7 -15 7q-12 -1 -20 -7q6 -5 6 -6q24 0 29 6zM362 672v4h-27v-4h27zM469 626q-50 17 -107 17q-24 0 -86 -8q-8 -3 -23 -8zM488 583l-206 3q-27 1 -41 -6q32 -39 73 -80
q0 10 5 14h82q18 -1 24 -2q4 0 3 0q5 0 32 33.5t28 37.5zM402 480q0 6 -6 12q-19 0 -56 -1v-13q3 -1 48 -1q10 0 14 3zM483 494q-84 -83 -84 -95q0 -5 27 -35.5t32 -30.5t6 3zM374 447q-1 0 -5.5 1.5t-5.5 1.5q-4 -6 0 -10q5 0 11 7zM330 400q0 6 -55 67.5t-69 71.5v-31
l23 -222q18 16 59.5 61.5t41.5 52.5zM451 259q0 9 -39 53.5t-48 48.5l-131 -150q3 -12 4 -41q22 -5 73 -5q53 0 71 3q20 34 51 43q19 6 19 48zM484 150q0 13 -13 26t-26 13q-18 0 -29.5 -12.5t-11.5 -27.5q0 -17 11.5 -28t27.5 -11q15 0 28 11t13 29zM263 124q-2 5 -9 13
q-3 -1 -8 -5v-14q1 0 5.5 -1.5t5.5 -1.5q1 1 3 4t3 5zM469 150q0 -25 -25 -25t-25 24q0 26 25 26q9 0 17 -8.5t8 -16.5z" />
    <glyph glyph-name="equal" unicode="=" 
d="M672 714l-154 -176q0 -5 4 -6.5t12 -3t10 -1.5h12.5h13.5q3 -12 3 -49q-6 -8 -23.5 -8.5t-34.5 -0.5q-3 -2 -6 -6q-8 -53 -23 -158l171 -209q-9 -13 -30 -26l-145 162q-8 -5 -8 -15q0 -7 13 -21t16 -22q5 -22 5 -27q0 -13 -12.5 -33t-25.5 -23q-24 -6 -30 -6q-8 0 -25 8
q-20 9 -25 20q-6 15 -13 24q-5 3 -26 3q-1 0 -22.5 -1.5t-34.5 -1.5q-7 0 -11 -4v-27q0 -3 -1.5 -5t-1.5 -3q-8 -3 -26 -3q-3 0 -23 1q-5 6 -5 18q0 16 -1 19q-5 3 -13 10q0 12 -5 37q-17 -9 -58.5 -59.5t-48.5 -50.5q-4 0 -16 11t-12 15q0 7 24 33q37 39 104 119q1 1 1 23
q0 3 -3 40q-4 44 -5 61q-7 87 -15 173q-1 12 -3 32q-2 10 -26 9q0 10 -4 29l-41.5 47.5t-41.5 52.5q0 3 11.5 14t18.5 14l99 -102q21 1 21.5 24t15.5 23q12 0 16.5 -15t10.5 -15q17 0 44 12q1 11 4 33h88q7 -3 8 -15q0 -7 1 -15q0 -1 4 -4q15 -2 54 -9q36 -7 38 -7
q7 0 16 15t28 15q14 0 29 -12l72 72q4 0 15.5 -11t15.5 -18zM429 -16q-6 -1 -17 -5v-33q4 -3 14 -2l1.5 -7.5t1.5 -14.5q-3 0 -10.5 -1.5t-10.5 -1.5q-25 0 -28 20.5t-4 39.5q-1 2 -9 2v25h9q3 0 3 5q-1 9 -1 8q7 5 31 17q3 -10 3 -28q6 -1 17 -5v-19zM359 9h-36v-87h-37v86
q-19 1 -38 -1l3 30h108v-28zM548 655q-1 0 -5.5 1.5t-8.5 1.5l-6 -7q0 -4 6 -10h11zM548 498q-2 7 -15 7q-12 -1 -20 -7q6 -5 6 -6q24 0 29 6zM362 672v4h-27v-4h27zM469 626q-50 17 -107 17q-24 0 -86 -8q-8 -3 -23 -8zM488 583l-206 3q-27 1 -41 -6q32 -39 73 -80
q0 10 5 14h82q18 -1 24 -2q4 0 3 0q5 0 32 33.5t28 37.5zM402 480q0 6 -6 12q-19 0 -56 -1v-13q3 -1 48 -1q10 0 14 3zM483 494q-84 -83 -84 -95q0 -5 27 -35.5t32 -30.5t6 3zM374 447q-1 0 -5.5 1.5t-5.5 1.5q-4 -6 0 -10q5 0 11 7zM330 400q0 6 -55 67.5t-69 71.5v-31
l23 -222q18 16 59.5 61.5t41.5 52.5zM451 259q0 9 -39 53.5t-48 48.5l-131 -150q3 -12 4 -41q22 -5 73 -5q53 0 71 3q20 34 51 43q19 6 19 48zM484 150q0 13 -13 26t-26 13q-18 0 -29.5 -12.5t-11.5 -27.5q0 -17 11.5 -28t27.5 -11q15 0 28 11t13 29zM263 124q-2 5 -9 13
q-3 -1 -8 -5v-14q1 0 5.5 -1.5t5.5 -1.5q1 1 3 4t3 5zM469 150q0 -25 -25 -25t-25 24q0 26 25 26q9 0 17 -8.5t8 -16.5z" />
    <glyph glyph-name="greater" unicode="&#x3e;" 
d="M672 714l-154 -176q0 -5 4 -6.5t12 -3t10 -1.5h12.5h13.5q3 -12 3 -49q-6 -8 -23.5 -8.5t-34.5 -0.5q-3 -2 -6 -6q-8 -53 -23 -158l171 -209q-9 -13 -30 -26l-145 162q-8 -5 -8 -15q0 -7 13 -21t16 -22q5 -22 5 -27q0 -13 -12.5 -33t-25.5 -23q-24 -6 -30 -6q-8 0 -25 8
q-20 9 -25 20q-6 15 -13 24q-5 3 -26 3q-1 0 -22.5 -1.5t-34.5 -1.5q-7 0 -11 -4v-27q0 -3 -1.5 -5t-1.5 -3q-8 -3 -26 -3q-3 0 -23 1q-5 6 -5 18q0 16 -1 19q-5 3 -13 10q0 12 -5 37q-17 -9 -58.5 -59.5t-48.5 -50.5q-4 0 -16 11t-12 15q0 7 24 33q37 39 104 119q1 1 1 23
q0 3 -3 40q-4 44 -5 61q-7 87 -15 173q-1 12 -3 32q-2 10 -26 9q0 10 -4 29l-41.5 47.5t-41.5 52.5q0 3 11.5 14t18.5 14l99 -102q21 1 21.5 24t15.5 23q12 0 16.5 -15t10.5 -15q17 0 44 12q1 11 4 33h88q7 -3 8 -15q0 -7 1 -15q0 -1 4 -4q15 -2 54 -9q36 -7 38 -7
q7 0 16 15t28 15q14 0 29 -12l72 72q4 0 15.5 -11t15.5 -18zM429 -16q-6 -1 -17 -5v-33q4 -3 14 -2l1.5 -7.5t1.5 -14.5q-3 0 -10.5 -1.5t-10.5 -1.5q-25 0 -28 20.5t-4 39.5q-1 2 -9 2v25h9q3 0 3 5q-1 9 -1 8q7 5 31 17q3 -10 3 -28q6 -1 17 -5v-19zM359 9h-36v-87h-37v86
q-19 1 -38 -1l3 30h108v-28zM548 655q-1 0 -5.5 1.5t-8.5 1.5l-6 -7q0 -4 6 -10h11zM548 498q-2 7 -15 7q-12 -1 -20 -7q6 -5 6 -6q24 0 29 6zM362 672v4h-27v-4h27zM469 626q-50 17 -107 17q-24 0 -86 -8q-8 -3 -23 -8zM488 583l-206 3q-27 1 -41 -6q32 -39 73 -80
q0 10 5 14h82q18 -1 24 -2q4 0 3 0q5 0 32 33.5t28 37.5zM402 480q0 6 -6 12q-19 0 -56 -1v-13q3 -1 48 -1q10 0 14 3zM483 494q-84 -83 -84 -95q0 -5 27 -35.5t32 -30.5t6 3zM374 447q-1 0 -5.5 1.5t-5.5 1.5q-4 -6 0 -10q5 0 11 7zM330 400q0 6 -55 67.5t-69 71.5v-31
l23 -222q18 16 59.5 61.5t41.5 52.5zM451 259q0 9 -39 53.5t-48 48.5l-131 -150q3 -12 4 -41q22 -5 73 -5q53 0 71 3q20 34 51 43q19 6 19 48zM484 150q0 13 -13 26t-26 13q-18 0 -29.5 -12.5t-11.5 -27.5q0 -17 11.5 -28t27.5 -11q15 0 28 11t13 29zM263 124q-2 5 -9 13
q-3 -1 -8 -5v-14q1 0 5.5 -1.5t5.5 -1.5q1 1 3 4t3 5zM469 150q0 -25 -25 -25t-25 24q0 26 25 26q9 0 17 -8.5t8 -16.5z" />
    <glyph glyph-name="question" unicode="?" 
d="M672 714l-154 -176q0 -5 4 -6.5t12 -3t10 -1.5h12.5h13.5q3 -12 3 -49q-6 -8 -23.5 -8.5t-34.5 -0.5q-3 -2 -6 -6q-8 -53 -23 -158l171 -209q-9 -13 -30 -26l-145 162q-8 -5 -8 -15q0 -7 13 -21t16 -22q5 -22 5 -27q0 -13 -12.5 -33t-25.5 -23q-24 -6 -30 -6q-8 0 -25 8
q-20 9 -25 20q-6 15 -13 24q-5 3 -26 3q-1 0 -22.5 -1.5t-34.5 -1.5q-7 0 -11 -4v-27q0 -3 -1.5 -5t-1.5 -3q-8 -3 -26 -3q-3 0 -23 1q-5 6 -5 18q0 16 -1 19q-5 3 -13 10q0 12 -5 37q-17 -9 -58.5 -59.5t-48.5 -50.5q-4 0 -16 11t-12 15q0 7 24 33q37 39 104 119q1 1 1 23
q0 3 -3 40q-4 44 -5 61q-7 87 -15 173q-1 12 -3 32q-2 10 -26 9q0 10 -4 29l-41.5 47.5t-41.5 52.5q0 3 11.5 14t18.5 14l99 -102q21 1 21.5 24t15.5 23q12 0 16.5 -15t10.5 -15q17 0 44 12q1 11 4 33h88q7 -3 8 -15q0 -7 1 -15q0 -1 4 -4q15 -2 54 -9q36 -7 38 -7
q7 0 16 15t28 15q14 0 29 -12l72 72q4 0 15.5 -11t15.5 -18zM429 -16q-6 -1 -17 -5v-33q4 -3 14 -2l1.5 -7.5t1.5 -14.5q-3 0 -10.5 -1.5t-10.5 -1.5q-25 0 -28 20.5t-4 39.5q-1 2 -9 2v25h9q3 0 3 5q-1 9 -1 8q7 5 31 17q3 -10 3 -28q6 -1 17 -5v-19zM359 9h-36v-87h-37v86
q-19 1 -38 -1l3 30h108v-28zM548 655q-1 0 -5.5 1.5t-8.5 1.5l-6 -7q0 -4 6 -10h11zM548 498q-2 7 -15 7q-12 -1 -20 -7q6 -5 6 -6q24 0 29 6zM362 672v4h-27v-4h27zM469 626q-50 17 -107 17q-24 0 -86 -8q-8 -3 -23 -8zM488 583l-206 3q-27 1 -41 -6q32 -39 73 -80
q0 10 5 14h82q18 -1 24 -2q4 0 3 0q5 0 32 33.5t28 37.5zM402 480q0 6 -6 12q-19 0 -56 -1v-13q3 -1 48 -1q10 0 14 3zM483 494q-84 -83 -84 -95q0 -5 27 -35.5t32 -30.5t6 3zM374 447q-1 0 -5.5 1.5t-5.5 1.5q-4 -6 0 -10q5 0 11 7zM330 400q0 6 -55 67.5t-69 71.5v-31
l23 -222q18 16 59.5 61.5t41.5 52.5zM451 259q0 9 -39 53.5t-48 48.5l-131 -150q3 -12 4 -41q22 -5 73 -5q53 0 71 3q20 34 51 43q19 6 19 48zM484 150q0 13 -13 26t-26 13q-18 0 -29.5 -12.5t-11.5 -27.5q0 -17 11.5 -28t27.5 -11q15 0 28 11t13 29zM263 124q-2 5 -9 13
q-3 -1 -8 -5v-14q1 0 5.5 -1.5t5.5 -1.5q1 1 3 4t3 5zM469 150q0 -25 -25 -25t-25 24q0 26 25 26q9 0 17 -8.5t8 -16.5z" />
    <glyph glyph-name="at" unicode="@" 
d="M672 714l-154 -176q0 -5 4 -6.5t12 -3t10 -1.5h12.5h13.5q3 -12 3 -49q-6 -8 -23.5 -8.5t-34.5 -0.5q-3 -2 -6 -6q-8 -53 -23 -158l171 -209q-9 -13 -30 -26l-145 162q-8 -5 -8 -15q0 -7 13 -21t16 -22q5 -22 5 -27q0 -13 -12.5 -33t-25.5 -23q-24 -6 -30 -6q-8 0 -25 8
q-20 9 -25 20q-6 15 -13 24q-5 3 -26 3q-1 0 -22.5 -1.5t-34.5 -1.5q-7 0 -11 -4v-27q0 -3 -1.5 -5t-1.5 -3q-8 -3 -26 -3q-3 0 -23 1q-5 6 -5 18q0 16 -1 19q-5 3 -13 10q0 12 -5 37q-17 -9 -58.5 -59.5t-48.5 -50.5q-4 0 -16 11t-12 15q0 7 24 33q37 39 104 119q1 1 1 23
q0 3 -3 40q-4 44 -5 61q-7 87 -15 173q-1 12 -3 32q-2 10 -26 9q0 10 -4 29l-41.5 47.5t-41.5 52.5q0 3 11.5 14t18.5 14l99 -102q21 1 21.5 24t15.5 23q12 0 16.5 -15t10.5 -15q17 0 44 12q1 11 4 33h88q7 -3 8 -15q0 -7 1 -15q0 -1 4 -4q15 -2 54 -9q36 -7 38 -7
q7 0 16 15t28 15q14 0 29 -12l72 72q4 0 15.5 -11t15.5 -18zM429 -16q-6 -1 -17 -5v-33q4 -3 14 -2l1.5 -7.5t1.5 -14.5q-3 0 -10.5 -1.5t-10.5 -1.5q-25 0 -28 20.5t-4 39.5q-1 2 -9 2v25h9q3 0 3 5q-1 9 -1 8q7 5 31 17q3 -10 3 -28q6 -1 17 -5v-19zM359 9h-36v-87h-37v86
q-19 1 -38 -1l3 30h108v-28zM548 655q-1 0 -5.5 1.5t-8.5 1.5l-6 -7q0 -4 6 -10h11zM548 498q-2 7 -15 7q-12 -1 -20 -7q6 -5 6 -6q24 0 29 6zM362 672v4h-27v-4h27zM469 626q-50 17 -107 17q-24 0 -86 -8q-8 -3 -23 -8zM488 583l-206 3q-27 1 -41 -6q32 -39 73 -80
q0 10 5 14h82q18 -1 24 -2q4 0 3 0q5 0 32 33.5t28 37.5zM402 480q0 6 -6 12q-19 0 -56 -1v-13q3 -1 48 -1q10 0 14 3zM483 494q-84 -83 -84 -95q0 -5 27 -35.5t32 -30.5t6 3zM374 447q-1 0 -5.5 1.5t-5.5 1.5q-4 -6 0 -10q5 0 11 7zM330 400q0 6 -55 67.5t-69 71.5v-31
l23 -222q18 16 59.5 61.5t41.5 52.5zM451 259q0 9 -39 53.5t-48 48.5l-131 -150q3 -12 4 -41q22 -5 73 -5q53 0 71 3q20 34 51 43q19 6 19 48zM484 150q0 13 -13 26t-26 13q-18 0 -29.5 -12.5t-11.5 -27.5q0 -17 11.5 -28t27.5 -11q15 0 28 11t13 29zM263 124q-2 5 -9 13
q-3 -1 -8 -5v-14q1 0 5.5 -1.5t5.5 -1.5q1 1 3 4t3 5zM469 150q0 -25 -25 -25t-25 24q0 26 25 26q9 0 17 -8.5t8 -16.5z" />
    <glyph glyph-name="A" unicode="A" horiz-adv-x="567" 
d="M464 27l-28 -28q-33 4 -48 32q-6 12 -17 58q-9 37 -24 51q-15 4 -88 4q-80 0 -86 -2q-14 -4 -19 -34q-11 -57 -30 -108h-54q-15 15 -15 47q0 24 15 108q18 96 37 150q7 6 16 15q12 98 45 230q35 145 61 184q3 -3 49 -31q20 -60 54 -178q45 -158 55 -193q5 -17 3.5 -53.5
t4 -54t39.5 -63.5q30 -42 30 -58v-76zM318 241v79q1 19 -28 74q-23 43 -47 87q-37 -19 -49 -62q-7 -26 -7 -82q0 -65 16 -96q22 8 55 8q31 0 60 -8z" />
    <glyph glyph-name="B" unicode="B" horiz-adv-x="516" 
d="M405 192q0 -193 -181 -193q-18 0 -23 7q-9 13 -10 13q-5 2 -16 -2q-14 -5 -31 -5h-73q-2 15 6 46q10 39 10 44q3 25 3 54q0 26 -15 186q-1 13 6 43t6 41q-18 207 -18 306q18 0 74 13t69 13q50 0 102 -29.5t62.5 -59.5t10.5 -69q0 -38 -14 -110.5t-14 -101.5q0 -11 1 -21
q2 -14 16 -40l24 -42q4 -9 6 -26q1 -12 0 -34q-1 -29 -1 -33zM321 487q0 187 -145 187q-60 0 -60 -97q0 -41 11 -92q20 -88 61 -88q15 0 69 29q64 33 64 61zM345 240q0 56 -57 86q-43 23 -94 23q-38 0 -50 -28q-4 -11 -4 -39q0 -80 26 -221q109 12 148 61q31 38 31 118z" />
    <glyph glyph-name="C" unicode="C" horiz-adv-x="532" 
d="M445 83q0 -25 -6 -37q-10 -9 -37 -51q-22 -37 -45 -47.5t-66.5 -19t-68.5 -8.5q-23 0 -73 44q-55 46 -62 82q-27 128 -27 338q0 131 27 204q48 128 178 128q83 0 129 -76q39 -62 39 -150q-6 -6 -27 -19.5t-28 -19.5q-13 19 -31 94q-14 57 -55 83q-26 15 -64 15
q-17 0 -27 -3q-54 -38 -66 -77q-5 -15 -6 -41q0 -17 1 -45q2 -32 2 -38q0 -29 16 -156q18 -145 34 -208q59 -34 83 -34q110 0 110 143q32 -5 53 -41q17 -31 17 -60z" />
    <glyph glyph-name="D" unicode="D" horiz-adv-x="538" 
d="M429 173q0 -92 -48 -161q-56 -79 -151 -79q-10 0 -61.5 12.5t-76.5 12.5v365q2 78 -5 241q-1 3 -10.5 24t-9.5 37q0 46 74 66q46 13 101 13q71 0 123 -32q64 -38 64 -107q0 -29 -11 -95q-12 -78 -28 -126h-45q4 14 28 56q19 36 19 51q0 5 -26 47q-31 49 -45 107
q-17 10 -58 15q-83 10 -92 12q-20 -20 -20 -49q0 2 12 -208.5t12 -312.5q16 -9 67 -9q72 0 97 55q17 34 31 161h44q15 -26 15 -96z" />
    <glyph glyph-name="E" unicode="E" horiz-adv-x="489" 
d="M432 -6l-28 -28q-23 -21 -40 -21h-277l-16 15v164q34 22 42 33q6 7 6 23q0 13 -22 42t-23 41q-15 264 -15 404q0 20 9 30t19 18h281l28 -29q-16 -31 -73 -36q-52 -2 -103 -4q-57 -5 -74 -34q0 -25 -7.5 -101.5t-7.5 -90.5q0 -47 109 -47q20 0 45 2l25 2v-69q-45 0 -90 -1
q-60 -3 -77 -31v-192q14 -15 28.5 -29t31.5 -14q19 0 27 7q5 6 11 12q23 -2 88 -2q55 1 88 -6l15 -14v-44z" />
    <glyph glyph-name="F" unicode="F" horiz-adv-x="512" 
d="M442 729q-34 -39 -85 -50q-32 -6 -96 -3q-68 4 -99 -1q-21 -43 -22 -78v-142q-6 0 204 0v-115h-189v-313q-33 -27 -59 -27l-24 20q-16 15 -16 33q0 14 12.5 36.5t12.5 37.5v642h281q18 1 42 -15q19 -12 38 -25z" />
    <glyph glyph-name="G" unicode="G" horiz-adv-x="516" 
d="M406 608q0 -52 -15 -78q-31 1 -45 51q-22 83 -27 92q-26 49 -87 49q-14 0 -41 -18q-33 -22 -50 -28v-383q0 -20 23.5 -78t47.5 -98q3 -4 6 -9h20q44 0 85 48q35 42 35 72q0 37 -22 55q-9 8 -48 24q-34 14 -49 34v42q11 0 42 7t47 7q38 0 78 -40l-12 -338q0 13 -17 13
q-4 0 -16.5 -1.5t-17.5 -1.5q-8 0 -13 2q-56 -20 -92 -20q-117 0 -154 174q-15 70 -15 212q0 240 28 309q22 56 60 70q17 6 69 6q180 0 180 -174z" />
    <glyph glyph-name="H" unicode="H" horiz-adv-x="559" 
d="M455 65q0 -19 -25.5 -41.5t-45.5 -22.5q0 21 -22 51q3 31 3 71q0 32 -3 108q-3 70 -3 109q-15 9 -79 9q-51 0 -52 -1q-28 -4 -47 -31q-6 -149 4 -277q-4 -7 -23 -20q-22 -16 -26 -21q-16 18 -33.5 58t-17.5 57q0 65 4.5 222.5t4.5 222.5q0 24 -12.5 75t-12.5 64
q0 15 17.5 30t34.5 30q23 0 40 -28q3 -21 3 -49q0 -21 -2 -64t-2 -63q0 -64 15 -94q20 -39 69 -39q12 0 45 13t48 13q28 51 28 150q0 27 -2.5 81t-2.5 79h43q28 -26 28 -64v-593q0 -15 12 -17t12 -18z" />
    <glyph glyph-name="I" unicode="I" horiz-adv-x="302" 
d="M182 25q-4 0 -25.5 -6.5t-42.5 -6.5l-28 29q24 42 24 56q0 7 -4 14q-10 18 -21 38t-11 38v407q0 7 3.5 50.5t3.5 72.5q0 38 -5 64h79l27 -27v-729z" />
    <glyph glyph-name="J" unicode="J" horiz-adv-x="495" 
d="M385 222q0 -49 -48 -125q-55 -86 -115 -86q-78 0 -123 76q-39 66 -39 155q0 17 1 33h44q4 -13 35 -75q26 -54 27 -84q8 -8 12 -9q-2 1 25.5 1t51.5 21q28 26 32 69l14 583q13 0 33 -11q24 -13 25 -29q5 -50 2 -145q-2 -98 1 -145q5 -60 5 -169q0 -1 8.5 -21.5t8.5 -38.5z
" />
    <glyph glyph-name="K" unicode="K" horiz-adv-x="517" 
d="M419 22h-29q-43 44 -84 143q-1 1 -63 172q-29 -13 -56.5 -56t-53.5 -86q-1 -4 10 -9.5t11 -22.5v-150q-7 0 -29 -6.5t-28 -6.5q-20 42 -20 68q0 8 2.5 22.5t2.5 24.5v419q0 15 -8 43.5t-8 62.5q0 52 17 141h43q32 -56 32 -119q0 -19 -4 -55t-4 -54q0 -22 4 -41
q3 -13 -24 -60q20 -20 39 -20q30 75 80 175q45 87 89 174h68q-7 -26 -9 -63q-1 -31 -7 -41q-35 -57 -71 -113q-44 -71 -44 -89t54 -160q83 -217 90 -236v-57z" />
    <glyph glyph-name="L" unicode="L" horiz-adv-x="475" 
d="M407 -36q-37 23 -73 23q-23 0 -64.5 -12.5t-64.5 -12.5q-25 0 -68 10q-52 11 -87 29v754h79q2 -18 23 -51q-2 -68 -14 -210.5t-14 -200.5q-1 -25 3 -92q5 -74 5 -110q16 -9 91 -9q17 0 59.5 -12t62.5 -12q31 0 48 23z" />
    <glyph glyph-name="M" unicode="M" horiz-adv-x="604" 
d="M484 13h-94q23 27 23 107q0 26 -2.5 69.5t-2.5 56.5q7 19 -15 41q-18 3 -26 -8q0 -74 -32 -192q-3 -13 -23 -48t-26 -53q-17 35 -60.5 116t-65.5 125q-13 -50 -13 -113q0 -53 9 -114h-73q-10 243 -10 470q0 202 10 286h50q51 -102 113 -352q12 -16 29 -33q58 24 64 71
q2 19 0 72q-2 46 4 70q3 12 27 79q19 50 19 78q6 7 13 14q4 2 22 2q28 0 47 -51q14 -39 13 -62v-631z" />
    <glyph glyph-name="N" unicode="N" horiz-adv-x="549" 
d="M433 426l-15 -439q-81 41 -110 220l-40 48q-4 43 -25 94q-28 67 -68 83q-6 -7 -9 -17t-7 -15q3 -127 21 -374l-28 -28q-10 0 -28 9.5t-25 18.5q-8 61 -8 93q0 47 12 90q-9 12 -17 25q-14 20 -14 37v472h82q6 -27 30 -70q31 -56 39 -76q6 -13 10.5 -53.5t9.5 -55.5
q23 -65 91 -177q9 0 22 20q5 43 5 97q0 166 -35 316h55q22 -21 30 -129q11 -143 22 -189z" />
    <glyph glyph-name="O" unicode="O" horiz-adv-x="542" 
d="M442 576q0 -27 -22 -56q-3 -36 -2 -97q3 -98 3 -106q0 -178 -8 -229q-4 -29 -53 -66q-44 -35 -79 -45q-13 -3 -32 -3q-23 0 -66 17q-50 20 -74 45q-18 19 -27 68l-14 80q6 150 6 241q0 65 -3 97.5t-3 24.5q19 210 217 210q54 0 111 -87q46 -71 46 -94zM345 121v512
q-25 25 -103 64q-27 -26 -54.5 -52.5t-27.5 -37.5q-8 -73 -8 -223q0 -5 -1 -35.5t-1 -53.5q0 -225 105 -225q16 0 46 22q37 26 44 29z" />
    <glyph glyph-name="P" unicode="P" horiz-adv-x="520" 
d="M443 528q0 -9 2 -33.5t1 -37.5q-1 -19 -8 -34q-48 -100 -152 -100q-15 0 -21 6t-21 6q-20 0 -46 -20t-44 -48q0 -3 12 -9t11 -24v-246q-16 -4 -45 -1q-30 3 -50 14v399q0 19 -8 24.5t-16 10.5l12 302q0 -8 8 -8q6 0 23 6t23 5q41 -3 119 0q97 5 92 5q20 0 61 -45t43 -69
q4 -100 4 -103zM371 552q0 36 -27 74q-33 47 -82 47q-40 0 -96 -51q0 1 0 -15q-1 -17 -1 -32q0 -155 67 -155q15 0 18 6t18 6q53 0 80 40q23 33 23 80z" />
    <glyph glyph-name="Q" unicode="Q" horiz-adv-x="537" 
d="M502 -30q0 -13 -40 -54q-41 48 -126 48q-19 0 -57 -2.5t-55 -2.5q-33 0 -55 7q-36 12 -65 65q-22 44 -43 87l1.5 14t2.5 38q1 36 1 93q0 113 -5 300l24 60q22 40 61 52q31 9 101 9q55 0 80 -14q41 -22 78 -96q-2 -53 -11 -164q-6 -42 -6 -91q0 -100 24 -233q3 -14 38 -54
q44 -50 52 -62zM328 288q0 16 -6 113q-9 117 -11 152q-61 38 -82 38q-19 0 -38.5 -14.5t-21.5 -25.5q-14 -60 -27 -172q-11 -96 -11 -120q0 -16 26.5 -51.5t26.5 -42.5q2 -10 -2 -33q-4 -26 -4 -34q0 -10 3 -16q23 -49 35 -61q5 0 26 7t27 7q-25 51 -25 80q0 50 67 74
q2 11 10 53q7 33 7 46z" />
    <glyph glyph-name="R" unicode="R" horiz-adv-x="637" 
d="M51 795v21v-21zM549 -4q0 -17 -6 -31.5t-6 -17.5l-14 -14q-4 -2 -22 -2q-20 0 -46 19.5t-34 44.5q-9 30 -16 96q-9 76 -15 107q-3 15 -24 35q-25 25 -28 32h-31q-25 -39 -34 -49q-21 -23 -46 -32l10 -64q6 0 18 11.5t18 11.5q-2 -56 14 -151l-13 -48l-78 -13l-16 15v233
q6 5 23.5 10t24.5 11q-10 41 -44 45q-1 21 -9 78q-7 51 -7 66q0 36 4 51q7 8 21 39.5t35 52.5q-31 20 -42 67q-9 39 -17 78q81 28 213 28q92 0 131 -99q24 -60 24 -139q0 -15 -35.5 -113.5t-35.5 -113.5q0 -13 41.5 -122t41.5 -122zM442 532q0 26 -50 53q-46 24 -75 24
q-21 0 -37.5 -24.5t-16.5 -40.5q0 -9 8 -55t8 -72q0 -18 -3 -31q21 -5 52 -5q16 0 48 2q29 2 40 2q26 130 26 147z" />
    <glyph glyph-name="S" unicode="S" horiz-adv-x="528" 
d="M416 115q0 -40 -5 -86q-38 -24 -54.5 -49t-25.5 -29q-19 -8 -81 -8q-79 0 -122 46q-27 30 -69 128q45 47 104 63q11 -27 17 -109q18 -10 35 -21q22 -12 41 -12q45 0 68 31q21 27 21 70q0 19 -7 30q-7 8 -13 16q-7 51 -51 87q-44 30 -89 60q-54 39 -75 91q-2 5 -2 12
q0 9 6 25.5t6 23.5q0 24 -59 32q0 31 42 54q-3 7 -3 16l11 57q116 62 145 62q32 0 84 -27.5t76 -60.5v-135q-6 -7 -13 -13q-4 -2 -22 -2q-34 0 -50 40q-12 37 -25 74q-21 40 -68 40q-41 0 -72 -56q-23 -43 -23 -63q0 -13 80 -80q98 -80 128 -117q42 -50 56 -78
q11 -24 11 -53q0 -6 -1 -25.5t-1 -33.5z" />
    <glyph glyph-name="T" unicode="T" horiz-adv-x="514" 
d="M445 639q-11 -11 -79 -26q-60 -13 -73 -47q-20 -55 -20 -135q0 -33 5 -118q5 -74 4 -114q0 -69 -1 -138q-3 -92 -29 -129h-55q0 10 -7 38t-7 44q0 8 9 60t9 78q0 15 -3 24l18 24q12 16 27 23q-61 38 -61 125q0 29 8.5 85t8.5 79q0 50 -28 71q-34 25 -117 16q0 6 -6 28
t-6 28l344 38q18 0 36 -22q12 -16 23 -32z" />
    <glyph glyph-name="U" unicode="U" horiz-adv-x="546" 
d="M427 348q0 -3 1.5 -40t1.5 -67q0 -298 -116 -298q-121 0 -169 27q-18 10 -24 48q-4 30 -7 60q-21 97 -21 240v62q1 42 1 62q0 139 -24 222l28 28h64v-646q29 -22 82 -68q21 7 50 31.5t58 49.5q10 56 10 79q0 26 -6 48q0 328 4 423q2 74 12 84q9 -1 30 -6q25 -70 25 -339z
" />
    <glyph glyph-name="V" unicode="V" horiz-adv-x="539" 
d="M464 655q-21 -96 -122 -624q-2 -8 -23.5 -40.5t-21.5 -46.5h-55q-74 183 -73 209v75q1 -1 47 -28q31 -19 47 -19q19 0 31 23q7 12 21 53q21 25 67 73q-14 8 -28 17q-20 12 -20 30q0 24 24 115q25 96 50 163h56zM203 379l-15 -114l-30 12q-7 7 -5 25q1 20 0 24
q-34 27 -53 109q-22 93 -51 131l15 90q47 -22 70 -76q9 -21 29 -102q16 -66 40 -99zM499 816v-21v21z" />
    <glyph glyph-name="W" unicode="W" horiz-adv-x="588" 
d="M463 703q1 -24 1 -50q0 -75 -28 -276q-19 -139 -43 -407q-27 -26 -44 -26q-22 39 -32 142q-8 90 -53 143q-3 -17 -19 -150q-12 -96 -33 -159q-45 6 -55 71q-1 6 -3 104q0 27 -3 43q-27 175 -90 541h55q37 -51 37 -113q0 -12 -1 -33t-1 -31q0 -62 47 -107q35 17 35 87
q0 18 -2.5 52t-2.5 48q0 13 2 24t16 37.5t16 37.5q3 -15 27.5 -60.5t27.5 -75.5q1 -52 14 -151q31 0 34 31q14 165 42 278h56z" />
    <glyph glyph-name="X" unicode="X" horiz-adv-x="521" 
d="M437 -4q0 -35 -15 -46q-25 -16 -50 -31q-21 20 -50 52q0 27 -26 90q-30 73 -35 97q-28 -4 -51.5 -54.5t-45.5 -98.5q-29 -54 -68 -62q-16 16 -16 59q0 39 75 211q3 7 21 11q26 7 35 11l-36 35q6 6 24 18.5t24 18.5q-66 126 -99 211q-13 20 -27 24q-41 82 -41 127
q0 18 4.5 23.5t11.5 11.5h39q26 -8 50 -82q29 -86 47 -108h42q19 48 39 97q23 57 44 93h41q16 -11 16 -59q0 -19 -46 -142q-49 -129 -73 -162q18 -24 43 -69q-2 -19 7 -59q5 -10 32 -33.5t32 -38.5q4 -11 32 -78q20 -49 20 -67z" />
    <glyph glyph-name="Y" unicode="Y" horiz-adv-x="506" 
d="M409 663q0 -6 -54 -154q-57 -156 -63 -181q-8 -36 -8 -112q0 -35 3 -130q3 -90 2 -140q-7 -6 -13 -13q-4 -2 -22 -2q-39 0 -57 41q24 108 24 193q0 48 -7 92q-3 20 -26 59q-29 49 -38 71q-13 32 -45 142q-26 90 -53 137q9 0 17.5 8.5t8.5 17.5q40 -20 61 -78l28 -106
q16 -59 47 -77q32 0 48 32q17 36 44 114q29 89 46 127q14 0 33 -9q24 -13 24 -32z" />
    <glyph glyph-name="Z" unicode="Z" horiz-adv-x="489" 
d="M414 -55q-64 -9 -148 -9q-85 0 -159 9v98q0 20 68 206q60 162 122 318q-37 51 -91 51q-15 0 -45.5 -5t-44.5 -5q-33 0 -57 19q34 27 46 31q18 7 75 10q183 10 199 11q0 -3 6.5 -13t6.5 -27q0 -23 -62 -231q-65 -213 -117 -361q80 -18 201 0v-102z" />
    <glyph glyph-name="bracketleft" unicode="[" 
d="M672 714l-154 -176q0 -5 4 -6.5t12 -3t10 -1.5h12.5h13.5q3 -12 3 -49q-6 -8 -23.5 -8.5t-34.5 -0.5q-3 -2 -6 -6q-8 -53 -23 -158l171 -209q-9 -13 -30 -26l-145 162q-8 -5 -8 -15q0 -7 13 -21t16 -22q5 -22 5 -27q0 -13 -12.5 -33t-25.5 -23q-24 -6 -30 -6q-8 0 -25 8
q-20 9 -25 20q-6 15 -13 24q-5 3 -26 3q-1 0 -22.5 -1.5t-34.5 -1.5q-7 0 -11 -4v-27q0 -3 -1.5 -5t-1.5 -3q-8 -3 -26 -3q-3 0 -23 1q-5 6 -5 18q0 16 -1 19q-5 3 -13 10q0 12 -5 37q-17 -9 -58.5 -59.5t-48.5 -50.5q-4 0 -16 11t-12 15q0 7 24 33q37 39 104 119q1 1 1 23
q0 3 -3 40q-4 44 -5 61q-7 87 -15 173q-1 12 -3 32q-2 10 -26 9q0 10 -4 29l-41.5 47.5t-41.5 52.5q0 3 11.5 14t18.5 14l99 -102q21 1 21.5 24t15.5 23q12 0 16.5 -15t10.5 -15q17 0 44 12q1 11 4 33h88q7 -3 8 -15q0 -7 1 -15q0 -1 4 -4q15 -2 54 -9q36 -7 38 -7
q7 0 16 15t28 15q14 0 29 -12l72 72q4 0 15.5 -11t15.5 -18zM429 -16q-6 -1 -17 -5v-33q4 -3 14 -2l1.5 -7.5t1.5 -14.5q-3 0 -10.5 -1.5t-10.5 -1.5q-25 0 -28 20.5t-4 39.5q-1 2 -9 2v25h9q3 0 3 5q-1 9 -1 8q7 5 31 17q3 -10 3 -28q6 -1 17 -5v-19zM359 9h-36v-87h-37v86
q-19 1 -38 -1l3 30h108v-28zM548 655q-1 0 -5.5 1.5t-8.5 1.5l-6 -7q0 -4 6 -10h11zM548 498q-2 7 -15 7q-12 -1 -20 -7q6 -5 6 -6q24 0 29 6zM362 672v4h-27v-4h27zM469 626q-50 17 -107 17q-24 0 -86 -8q-8 -3 -23 -8zM488 583l-206 3q-27 1 -41 -6q32 -39 73 -80
q0 10 5 14h82q18 -1 24 -2q4 0 3 0q5 0 32 33.5t28 37.5zM402 480q0 6 -6 12q-19 0 -56 -1v-13q3 -1 48 -1q10 0 14 3zM483 494q-84 -83 -84 -95q0 -5 27 -35.5t32 -30.5t6 3zM374 447q-1 0 -5.5 1.5t-5.5 1.5q-4 -6 0 -10q5 0 11 7zM330 400q0 6 -55 67.5t-69 71.5v-31
l23 -222q18 16 59.5 61.5t41.5 52.5zM451 259q0 9 -39 53.5t-48 48.5l-131 -150q3 -12 4 -41q22 -5 73 -5q53 0 71 3q20 34 51 43q19 6 19 48zM484 150q0 13 -13 26t-26 13q-18 0 -29.5 -12.5t-11.5 -27.5q0 -17 11.5 -28t27.5 -11q15 0 28 11t13 29zM263 124q-2 5 -9 13
q-3 -1 -8 -5v-14q1 0 5.5 -1.5t5.5 -1.5q1 1 3 4t3 5zM469 150q0 -25 -25 -25t-25 24q0 26 25 26q9 0 17 -8.5t8 -16.5z" />
    <glyph glyph-name="backslash" unicode="\" 
d="M672 714l-154 -176q0 -5 4 -6.5t12 -3t10 -1.5h12.5h13.5q3 -12 3 -49q-6 -8 -23.5 -8.5t-34.5 -0.5q-3 -2 -6 -6q-8 -53 -23 -158l171 -209q-9 -13 -30 -26l-145 162q-8 -5 -8 -15q0 -7 13 -21t16 -22q5 -22 5 -27q0 -13 -12.5 -33t-25.5 -23q-24 -6 -30 -6q-8 0 -25 8
q-20 9 -25 20q-6 15 -13 24q-5 3 -26 3q-1 0 -22.5 -1.5t-34.5 -1.5q-7 0 -11 -4v-27q0 -3 -1.5 -5t-1.5 -3q-8 -3 -26 -3q-3 0 -23 1q-5 6 -5 18q0 16 -1 19q-5 3 -13 10q0 12 -5 37q-17 -9 -58.5 -59.5t-48.5 -50.5q-4 0 -16 11t-12 15q0 7 24 33q37 39 104 119q1 1 1 23
q0 3 -3 40q-4 44 -5 61q-7 87 -15 173q-1 12 -3 32q-2 10 -26 9q0 10 -4 29l-41.5 47.5t-41.5 52.5q0 3 11.5 14t18.5 14l99 -102q21 1 21.5 24t15.5 23q12 0 16.5 -15t10.5 -15q17 0 44 12q1 11 4 33h88q7 -3 8 -15q0 -7 1 -15q0 -1 4 -4q15 -2 54 -9q36 -7 38 -7
q7 0 16 15t28 15q14 0 29 -12l72 72q4 0 15.5 -11t15.5 -18zM429 -16q-6 -1 -17 -5v-33q4 -3 14 -2l1.5 -7.5t1.5 -14.5q-3 0 -10.5 -1.5t-10.5 -1.5q-25 0 -28 20.5t-4 39.5q-1 2 -9 2v25h9q3 0 3 5q-1 9 -1 8q7 5 31 17q3 -10 3 -28q6 -1 17 -5v-19zM359 9h-36v-87h-37v86
q-19 1 -38 -1l3 30h108v-28zM548 655q-1 0 -5.5 1.5t-8.5 1.5l-6 -7q0 -4 6 -10h11zM548 498q-2 7 -15 7q-12 -1 -20 -7q6 -5 6 -6q24 0 29 6zM362 672v4h-27v-4h27zM469 626q-50 17 -107 17q-24 0 -86 -8q-8 -3 -23 -8zM488 583l-206 3q-27 1 -41 -6q32 -39 73 -80
q0 10 5 14h82q18 -1 24 -2q4 0 3 0q5 0 32 33.5t28 37.5zM402 480q0 6 -6 12q-19 0 -56 -1v-13q3 -1 48 -1q10 0 14 3zM483 494q-84 -83 -84 -95q0 -5 27 -35.5t32 -30.5t6 3zM374 447q-1 0 -5.5 1.5t-5.5 1.5q-4 -6 0 -10q5 0 11 7zM330 400q0 6 -55 67.5t-69 71.5v-31
l23 -222q18 16 59.5 61.5t41.5 52.5zM451 259q0 9 -39 53.5t-48 48.5l-131 -150q3 -12 4 -41q22 -5 73 -5q53 0 71 3q20 34 51 43q19 6 19 48zM484 150q0 13 -13 26t-26 13q-18 0 -29.5 -12.5t-11.5 -27.5q0 -17 11.5 -28t27.5 -11q15 0 28 11t13 29zM263 124q-2 5 -9 13
q-3 -1 -8 -5v-14q1 0 5.5 -1.5t5.5 -1.5q1 1 3 4t3 5zM469 150q0 -25 -25 -25t-25 24q0 26 25 26q9 0 17 -8.5t8 -16.5z" />
    <glyph glyph-name="bracketright" unicode="]" 
d="M672 714l-154 -176q0 -5 4 -6.5t12 -3t10 -1.5h12.5h13.5q3 -12 3 -49q-6 -8 -23.5 -8.5t-34.5 -0.5q-3 -2 -6 -6q-8 -53 -23 -158l171 -209q-9 -13 -30 -26l-145 162q-8 -5 -8 -15q0 -7 13 -21t16 -22q5 -22 5 -27q0 -13 -12.5 -33t-25.5 -23q-24 -6 -30 -6q-8 0 -25 8
q-20 9 -25 20q-6 15 -13 24q-5 3 -26 3q-1 0 -22.5 -1.5t-34.5 -1.5q-7 0 -11 -4v-27q0 -3 -1.5 -5t-1.5 -3q-8 -3 -26 -3q-3 0 -23 1q-5 6 -5 18q0 16 -1 19q-5 3 -13 10q0 12 -5 37q-17 -9 -58.5 -59.5t-48.5 -50.5q-4 0 -16 11t-12 15q0 7 24 33q37 39 104 119q1 1 1 23
q0 3 -3 40q-4 44 -5 61q-7 87 -15 173q-1 12 -3 32q-2 10 -26 9q0 10 -4 29l-41.5 47.5t-41.5 52.5q0 3 11.5 14t18.5 14l99 -102q21 1 21.5 24t15.5 23q12 0 16.5 -15t10.5 -15q17 0 44 12q1 11 4 33h88q7 -3 8 -15q0 -7 1 -15q0 -1 4 -4q15 -2 54 -9q36 -7 38 -7
q7 0 16 15t28 15q14 0 29 -12l72 72q4 0 15.5 -11t15.5 -18zM429 -16q-6 -1 -17 -5v-33q4 -3 14 -2l1.5 -7.5t1.5 -14.5q-3 0 -10.5 -1.5t-10.5 -1.5q-25 0 -28 20.5t-4 39.5q-1 2 -9 2v25h9q3 0 3 5q-1 9 -1 8q7 5 31 17q3 -10 3 -28q6 -1 17 -5v-19zM359 9h-36v-87h-37v86
q-19 1 -38 -1l3 30h108v-28zM548 655q-1 0 -5.5 1.5t-8.5 1.5l-6 -7q0 -4 6 -10h11zM548 498q-2 7 -15 7q-12 -1 -20 -7q6 -5 6 -6q24 0 29 6zM362 672v4h-27v-4h27zM469 626q-50 17 -107 17q-24 0 -86 -8q-8 -3 -23 -8zM488 583l-206 3q-27 1 -41 -6q32 -39 73 -80
q0 10 5 14h82q18 -1 24 -2q4 0 3 0q5 0 32 33.5t28 37.5zM402 480q0 6 -6 12q-19 0 -56 -1v-13q3 -1 48 -1q10 0 14 3zM483 494q-84 -83 -84 -95q0 -5 27 -35.5t32 -30.5t6 3zM374 447q-1 0 -5.5 1.5t-5.5 1.5q-4 -6 0 -10q5 0 11 7zM330 400q0 6 -55 67.5t-69 71.5v-31
l23 -222q18 16 59.5 61.5t41.5 52.5zM451 259q0 9 -39 53.5t-48 48.5l-131 -150q3 -12 4 -41q22 -5 73 -5q53 0 71 3q20 34 51 43q19 6 19 48zM484 150q0 13 -13 26t-26 13q-18 0 -29.5 -12.5t-11.5 -27.5q0 -17 11.5 -28t27.5 -11q15 0 28 11t13 29zM263 124q-2 5 -9 13
q-3 -1 -8 -5v-14q1 0 5.5 -1.5t5.5 -1.5q1 1 3 4t3 5zM469 150q0 -25 -25 -25t-25 24q0 26 25 26q9 0 17 -8.5t8 -16.5z" />
    <glyph glyph-name="asciicircum" unicode="^" 
d="M672 714l-154 -176q0 -5 4 -6.5t12 -3t10 -1.5h12.5h13.5q3 -12 3 -49q-6 -8 -23.5 -8.5t-34.5 -0.5q-3 -2 -6 -6q-8 -53 -23 -158l171 -209q-9 -13 -30 -26l-145 162q-8 -5 -8 -15q0 -7 13 -21t16 -22q5 -22 5 -27q0 -13 -12.5 -33t-25.5 -23q-24 -6 -30 -6q-8 0 -25 8
q-20 9 -25 20q-6 15 -13 24q-5 3 -26 3q-1 0 -22.5 -1.5t-34.5 -1.5q-7 0 -11 -4v-27q0 -3 -1.5 -5t-1.5 -3q-8 -3 -26 -3q-3 0 -23 1q-5 6 -5 18q0 16 -1 19q-5 3 -13 10q0 12 -5 37q-17 -9 -58.5 -59.5t-48.5 -50.5q-4 0 -16 11t-12 15q0 7 24 33q37 39 104 119q1 1 1 23
q0 3 -3 40q-4 44 -5 61q-7 87 -15 173q-1 12 -3 32q-2 10 -26 9q0 10 -4 29l-41.5 47.5t-41.5 52.5q0 3 11.5 14t18.5 14l99 -102q21 1 21.5 24t15.5 23q12 0 16.5 -15t10.5 -15q17 0 44 12q1 11 4 33h88q7 -3 8 -15q0 -7 1 -15q0 -1 4 -4q15 -2 54 -9q36 -7 38 -7
q7 0 16 15t28 15q14 0 29 -12l72 72q4 0 15.5 -11t15.5 -18zM429 -16q-6 -1 -17 -5v-33q4 -3 14 -2l1.5 -7.5t1.5 -14.5q-3 0 -10.5 -1.5t-10.5 -1.5q-25 0 -28 20.5t-4 39.5q-1 2 -9 2v25h9q3 0 3 5q-1 9 -1 8q7 5 31 17q3 -10 3 -28q6 -1 17 -5v-19zM359 9h-36v-87h-37v86
q-19 1 -38 -1l3 30h108v-28zM548 655q-1 0 -5.5 1.5t-8.5 1.5l-6 -7q0 -4 6 -10h11zM548 498q-2 7 -15 7q-12 -1 -20 -7q6 -5 6 -6q24 0 29 6zM362 672v4h-27v-4h27zM469 626q-50 17 -107 17q-24 0 -86 -8q-8 -3 -23 -8zM488 583l-206 3q-27 1 -41 -6q32 -39 73 -80
q0 10 5 14h82q18 -1 24 -2q4 0 3 0q5 0 32 33.5t28 37.5zM402 480q0 6 -6 12q-19 0 -56 -1v-13q3 -1 48 -1q10 0 14 3zM483 494q-84 -83 -84 -95q0 -5 27 -35.5t32 -30.5t6 3zM374 447q-1 0 -5.5 1.5t-5.5 1.5q-4 -6 0 -10q5 0 11 7zM330 400q0 6 -55 67.5t-69 71.5v-31
l23 -222q18 16 59.5 61.5t41.5 52.5zM451 259q0 9 -39 53.5t-48 48.5l-131 -150q3 -12 4 -41q22 -5 73 -5q53 0 71 3q20 34 51 43q19 6 19 48zM484 150q0 13 -13 26t-26 13q-18 0 -29.5 -12.5t-11.5 -27.5q0 -17 11.5 -28t27.5 -11q15 0 28 11t13 29zM263 124q-2 5 -9 13
q-3 -1 -8 -5v-14q1 0 5.5 -1.5t5.5 -1.5q1 1 3 4t3 5zM469 150q0 -25 -25 -25t-25 24q0 26 25 26q9 0 17 -8.5t8 -16.5z" />
    <glyph glyph-name="underscore" unicode="_" 
d="M672 714l-154 -176q0 -5 4 -6.5t12 -3t10 -1.5h12.5h13.5q3 -12 3 -49q-6 -8 -23.5 -8.5t-34.5 -0.5q-3 -2 -6 -6q-8 -53 -23 -158l171 -209q-9 -13 -30 -26l-145 162q-8 -5 -8 -15q0 -7 13 -21t16 -22q5 -22 5 -27q0 -13 -12.5 -33t-25.5 -23q-24 -6 -30 -6q-8 0 -25 8
q-20 9 -25 20q-6 15 -13 24q-5 3 -26 3q-1 0 -22.5 -1.5t-34.5 -1.5q-7 0 -11 -4v-27q0 -3 -1.5 -5t-1.5 -3q-8 -3 -26 -3q-3 0 -23 1q-5 6 -5 18q0 16 -1 19q-5 3 -13 10q0 12 -5 37q-17 -9 -58.5 -59.5t-48.5 -50.5q-4 0 -16 11t-12 15q0 7 24 33q37 39 104 119q1 1 1 23
q0 3 -3 40q-4 44 -5 61q-7 87 -15 173q-1 12 -3 32q-2 10 -26 9q0 10 -4 29l-41.5 47.5t-41.5 52.5q0 3 11.5 14t18.5 14l99 -102q21 1 21.5 24t15.5 23q12 0 16.5 -15t10.5 -15q17 0 44 12q1 11 4 33h88q7 -3 8 -15q0 -7 1 -15q0 -1 4 -4q15 -2 54 -9q36 -7 38 -7
q7 0 16 15t28 15q14 0 29 -12l72 72q4 0 15.5 -11t15.5 -18zM429 -16q-6 -1 -17 -5v-33q4 -3 14 -2l1.5 -7.5t1.5 -14.5q-3 0 -10.5 -1.5t-10.5 -1.5q-25 0 -28 20.5t-4 39.5q-1 2 -9 2v25h9q3 0 3 5q-1 9 -1 8q7 5 31 17q3 -10 3 -28q6 -1 17 -5v-19zM359 9h-36v-87h-37v86
q-19 1 -38 -1l3 30h108v-28zM548 655q-1 0 -5.5 1.5t-8.5 1.5l-6 -7q0 -4 6 -10h11zM548 498q-2 7 -15 7q-12 -1 -20 -7q6 -5 6 -6q24 0 29 6zM362 672v4h-27v-4h27zM469 626q-50 17 -107 17q-24 0 -86 -8q-8 -3 -23 -8zM488 583l-206 3q-27 1 -41 -6q32 -39 73 -80
q0 10 5 14h82q18 -1 24 -2q4 0 3 0q5 0 32 33.5t28 37.5zM402 480q0 6 -6 12q-19 0 -56 -1v-13q3 -1 48 -1q10 0 14 3zM483 494q-84 -83 -84 -95q0 -5 27 -35.5t32 -30.5t6 3zM374 447q-1 0 -5.5 1.5t-5.5 1.5q-4 -6 0 -10q5 0 11 7zM330 400q0 6 -55 67.5t-69 71.5v-31
l23 -222q18 16 59.5 61.5t41.5 52.5zM451 259q0 9 -39 53.5t-48 48.5l-131 -150q3 -12 4 -41q22 -5 73 -5q53 0 71 3q20 34 51 43q19 6 19 48zM484 150q0 13 -13 26t-26 13q-18 0 -29.5 -12.5t-11.5 -27.5q0 -17 11.5 -28t27.5 -11q15 0 28 11t13 29zM263 124q-2 5 -9 13
q-3 -1 -8 -5v-14q1 0 5.5 -1.5t5.5 -1.5q1 1 3 4t3 5zM469 150q0 -25 -25 -25t-25 24q0 26 25 26q9 0 17 -8.5t8 -16.5z" />
    <glyph glyph-name="grave" unicode="`" 
d="M672 714l-154 -176q0 -5 4 -6.5t12 -3t10 -1.5h12.5h13.5q3 -12 3 -49q-6 -8 -23.5 -8.5t-34.5 -0.5q-3 -2 -6 -6q-8 -53 -23 -158l171 -209q-9 -13 -30 -26l-145 162q-8 -5 -8 -15q0 -7 13 -21t16 -22q5 -22 5 -27q0 -13 -12.5 -33t-25.5 -23q-24 -6 -30 -6q-8 0 -25 8
q-20 9 -25 20q-6 15 -13 24q-5 3 -26 3q-1 0 -22.5 -1.5t-34.5 -1.5q-7 0 -11 -4v-27q0 -3 -1.5 -5t-1.5 -3q-8 -3 -26 -3q-3 0 -23 1q-5 6 -5 18q0 16 -1 19q-5 3 -13 10q0 12 -5 37q-17 -9 -58.5 -59.5t-48.5 -50.5q-4 0 -16 11t-12 15q0 7 24 33q37 39 104 119q1 1 1 23
q0 3 -3 40q-4 44 -5 61q-7 87 -15 173q-1 12 -3 32q-2 10 -26 9q0 10 -4 29l-41.5 47.5t-41.5 52.5q0 3 11.5 14t18.5 14l99 -102q21 1 21.5 24t15.5 23q12 0 16.5 -15t10.5 -15q17 0 44 12q1 11 4 33h88q7 -3 8 -15q0 -7 1 -15q0 -1 4 -4q15 -2 54 -9q36 -7 38 -7
q7 0 16 15t28 15q14 0 29 -12l72 72q4 0 15.5 -11t15.5 -18zM429 -16q-6 -1 -17 -5v-33q4 -3 14 -2l1.5 -7.5t1.5 -14.5q-3 0 -10.5 -1.5t-10.5 -1.5q-25 0 -28 20.5t-4 39.5q-1 2 -9 2v25h9q3 0 3 5q-1 9 -1 8q7 5 31 17q3 -10 3 -28q6 -1 17 -5v-19zM359 9h-36v-87h-37v86
q-19 1 -38 -1l3 30h108v-28zM548 655q-1 0 -5.5 1.5t-8.5 1.5l-6 -7q0 -4 6 -10h11zM548 498q-2 7 -15 7q-12 -1 -20 -7q6 -5 6 -6q24 0 29 6zM362 672v4h-27v-4h27zM469 626q-50 17 -107 17q-24 0 -86 -8q-8 -3 -23 -8zM488 583l-206 3q-27 1 -41 -6q32 -39 73 -80
q0 10 5 14h82q18 -1 24 -2q4 0 3 0q5 0 32 33.5t28 37.5zM402 480q0 6 -6 12q-19 0 -56 -1v-13q3 -1 48 -1q10 0 14 3zM483 494q-84 -83 -84 -95q0 -5 27 -35.5t32 -30.5t6 3zM374 447q-1 0 -5.5 1.5t-5.5 1.5q-4 -6 0 -10q5 0 11 7zM330 400q0 6 -55 67.5t-69 71.5v-31
l23 -222q18 16 59.5 61.5t41.5 52.5zM451 259q0 9 -39 53.5t-48 48.5l-131 -150q3 -12 4 -41q22 -5 73 -5q53 0 71 3q20 34 51 43q19 6 19 48zM484 150q0 13 -13 26t-26 13q-18 0 -29.5 -12.5t-11.5 -27.5q0 -17 11.5 -28t27.5 -11q15 0 28 11t13 29zM263 124q-2 5 -9 13
q-3 -1 -8 -5v-14q1 0 5.5 -1.5t5.5 -1.5q1 1 3 4t3 5zM469 150q0 -25 -25 -25t-25 24q0 26 25 26q9 0 17 -8.5t8 -16.5z" />
    <glyph glyph-name="a" unicode="a" horiz-adv-x="567" 
d="M464 27l-28 -28q-33 4 -48 32q-6 12 -17 58q-9 37 -24 51q-15 4 -88 4q-80 0 -86 -2q-14 -4 -19 -34q-11 -57 -30 -108h-54q-15 15 -15 47q0 24 15 108q18 96 37 150q7 6 16 15q12 98 45 230q35 145 61 184q3 -3 49 -31q20 -60 54 -178q45 -158 55 -193q5 -17 3.5 -53.5
t4 -54t39.5 -63.5q30 -42 30 -58v-76zM318 241v79q1 19 -28 74q-23 43 -47 87q-37 -19 -49 -62q-7 -26 -7 -82q0 -65 16 -96q22 8 55 8q31 0 60 -8z" />
    <glyph glyph-name="b" unicode="b" horiz-adv-x="516" 
d="M405 192q0 -193 -181 -193q-18 0 -23 7q-9 13 -10 13q-5 2 -16 -2q-14 -5 -31 -5h-73q-2 15 6 46q10 39 10 44q3 25 3 54q0 26 -15 186q-1 13 6 43t6 41q-18 207 -18 306q18 0 74 13t69 13q50 0 102 -29.5t62.5 -59.5t10.5 -69q0 -38 -14 -110.5t-14 -101.5q0 -11 1 -21
q2 -14 16 -40l24 -42q4 -9 6 -26q1 -12 0 -34q-1 -29 -1 -33zM321 487q0 187 -145 187q-60 0 -60 -97q0 -41 11 -92q20 -88 61 -88q15 0 69 29q64 33 64 61zM345 240q0 56 -57 86q-43 23 -94 23q-38 0 -50 -28q-4 -11 -4 -39q0 -80 26 -221q109 12 148 61q31 38 31 118z" />
    <glyph glyph-name="c" unicode="c" horiz-adv-x="532" 
d="M445 83q0 -25 -6 -37q-10 -9 -37 -51q-22 -37 -45 -47.5t-66.5 -19t-68.5 -8.5q-23 0 -73 44q-55 46 -62 82q-27 128 -27 338q0 131 27 204q48 128 178 128q83 0 129 -76q39 -62 39 -150q-6 -6 -27 -19.5t-28 -19.5q-13 19 -31 94q-14 57 -55 83q-26 15 -64 15
q-17 0 -27 -3q-54 -38 -66 -77q-5 -15 -6 -41q0 -17 1 -45q2 -32 2 -38q0 -29 16 -156q18 -145 34 -208q59 -34 83 -34q110 0 110 143q32 -5 53 -41q17 -31 17 -60z" />
    <glyph glyph-name="d" unicode="d" horiz-adv-x="538" 
d="M429 173q0 -92 -48 -161q-56 -79 -151 -79q-10 0 -61.5 12.5t-76.5 12.5v365q2 78 -5 241q-1 3 -10.5 24t-9.5 37q0 46 74 66q46 13 101 13q71 0 123 -32q64 -38 64 -107q0 -29 -11 -95q-12 -78 -28 -126h-45q4 14 28 56q19 36 19 51q0 5 -26 47q-31 49 -45 107
q-17 10 -58 15q-83 10 -92 12q-20 -20 -20 -49q0 2 12 -208.5t12 -312.5q16 -9 67 -9q72 0 97 55q17 34 31 161h44q15 -26 15 -96z" />
    <glyph glyph-name="e" unicode="e" horiz-adv-x="489" 
d="M432 -6l-28 -28q-23 -21 -40 -21h-277l-16 15v164q34 22 42 33q6 7 6 23q0 13 -22 42t-23 41q-15 264 -15 404q0 20 9 30t19 18h281l28 -29q-16 -31 -73 -36q-52 -2 -103 -4q-57 -5 -74 -34q0 -25 -7.5 -101.5t-7.5 -90.5q0 -47 109 -47q20 0 45 2l25 2v-69q-45 0 -90 -1
q-60 -3 -77 -31v-192q14 -15 28.5 -29t31.5 -14q19 0 27 7q5 6 11 12q23 -2 88 -2q55 1 88 -6l15 -14v-44z" />
    <glyph glyph-name="f" unicode="f" horiz-adv-x="512" 
d="M442 729q-34 -39 -85 -50q-32 -6 -96 -3q-68 4 -99 -1q-21 -43 -22 -78v-142q-6 0 204 0v-115h-189v-313q-33 -27 -59 -27l-24 20q-16 15 -16 33q0 14 12.5 36.5t12.5 37.5v642h281q18 1 42 -15q19 -12 38 -25z" />
    <glyph glyph-name="g" unicode="g" horiz-adv-x="516" 
d="M406 608q0 -52 -15 -78q-31 1 -45 51q-22 83 -27 92q-26 49 -87 49q-14 0 -41 -18q-33 -22 -50 -28v-383q0 -20 23.5 -78t47.5 -98q3 -4 6 -9h20q44 0 85 48q35 42 35 72q0 37 -22 55q-9 8 -48 24q-34 14 -49 34v42q11 0 42 7t47 7q38 0 78 -40l-12 -338q0 13 -17 13
q-4 0 -16.5 -1.5t-17.5 -1.5q-8 0 -13 2q-56 -20 -92 -20q-117 0 -154 174q-15 70 -15 212q0 240 28 309q22 56 60 70q17 6 69 6q180 0 180 -174z" />
    <glyph glyph-name="h" unicode="h" horiz-adv-x="559" 
d="M455 65q0 -19 -25.5 -41.5t-45.5 -22.5q0 21 -22 51q3 31 3 71q0 32 -3 108q-3 70 -3 109q-15 9 -79 9q-51 0 -52 -1q-28 -4 -47 -31q-6 -149 4 -277q-4 -7 -23 -20q-22 -16 -26 -21q-16 18 -33.5 58t-17.5 57q0 65 4.5 222.5t4.5 222.5q0 24 -12.5 75t-12.5 64
q0 15 17.5 30t34.5 30q23 0 40 -28q3 -21 3 -49q0 -21 -2 -64t-2 -63q0 -64 15 -94q20 -39 69 -39q12 0 45 13t48 13q28 51 28 150q0 27 -2.5 81t-2.5 79h43q28 -26 28 -64v-593q0 -15 12 -17t12 -18z" />
    <glyph glyph-name="i" unicode="i" horiz-adv-x="302" 
d="M182 25q-4 0 -25.5 -6.5t-42.5 -6.5l-28 29q24 42 24 56q0 7 -4 14q-10 18 -21 38t-11 38v407q0 7 3.5 50.5t3.5 72.5q0 38 -5 64h79l27 -27v-729z" />
    <glyph glyph-name="j" unicode="j" horiz-adv-x="495" 
d="M385 222q0 -49 -48 -125q-55 -86 -115 -86q-78 0 -123 76q-39 66 -39 155q0 17 1 33h44q4 -13 35 -75q26 -54 27 -84q8 -8 12 -9q-2 1 25.5 1t51.5 21q28 26 32 69l14 583q13 0 33 -11q24 -13 25 -29q5 -50 2 -145q-2 -98 1 -145q5 -60 5 -169q0 -1 8.5 -21.5t8.5 -38.5z
" />
    <glyph glyph-name="k" unicode="k" horiz-adv-x="517" 
d="M419 22h-29q-43 44 -84 143q-1 1 -63 172q-29 -13 -56.5 -56t-53.5 -86q-1 -4 10 -9.5t11 -22.5v-150q-7 0 -29 -6.5t-28 -6.5q-20 42 -20 68q0 8 2.5 22.5t2.5 24.5v419q0 15 -8 43.5t-8 62.5q0 52 17 141h43q32 -56 32 -119q0 -19 -4 -55t-4 -54q0 -22 4 -41
q3 -13 -24 -60q20 -20 39 -20q30 75 80 175q45 87 89 174h68q-7 -26 -9 -63q-1 -31 -7 -41q-35 -57 -71 -113q-44 -71 -44 -89t54 -160q83 -217 90 -236v-57z" />
    <glyph glyph-name="l" unicode="l" horiz-adv-x="475" 
d="M407 -36q-37 23 -73 23q-23 0 -64.5 -12.5t-64.5 -12.5q-25 0 -68 10q-52 11 -87 29v754h79q2 -18 23 -51q-2 -68 -14 -210.5t-14 -200.5q-1 -25 3 -92q5 -74 5 -110q16 -9 91 -9q17 0 59.5 -12t62.5 -12q31 0 48 23z" />
    <glyph glyph-name="m" unicode="m" horiz-adv-x="604" 
d="M484 13h-94q23 27 23 107q0 26 -2.5 69.5t-2.5 56.5q7 19 -15 41q-18 3 -26 -8q0 -74 -32 -192q-3 -13 -23 -48t-26 -53q-17 35 -60.5 116t-65.5 125q-13 -50 -13 -113q0 -53 9 -114h-73q-10 243 -10 470q0 202 10 286h50q51 -102 113 -352q12 -16 29 -33q58 24 64 71
q2 19 0 72q-2 46 4 70q3 12 27 79q19 50 19 78q6 7 13 14q4 2 22 2q28 0 47 -51q14 -39 13 -62v-631z" />
    <glyph glyph-name="n" unicode="n" horiz-adv-x="549" 
d="M433 426l-15 -439q-81 41 -110 220l-40 48q-4 43 -25 94q-28 67 -68 83q-6 -7 -9 -17t-7 -15q3 -127 21 -374l-28 -28q-10 0 -28 9.5t-25 18.5q-8 61 -8 93q0 47 12 90q-9 12 -17 25q-14 20 -14 37v472h82q6 -27 30 -70q31 -56 39 -76q6 -13 10.5 -53.5t9.5 -55.5
q23 -65 91 -177q9 0 22 20q5 43 5 97q0 166 -35 316h55q22 -21 30 -129q11 -143 22 -189z" />
    <glyph glyph-name="o" unicode="o" horiz-adv-x="542" 
d="M442 576q0 -27 -22 -56q-3 -36 -2 -97q3 -98 3 -106q0 -178 -8 -229q-4 -29 -53 -66q-44 -35 -79 -45q-13 -3 -32 -3q-23 0 -66 17q-50 20 -74 45q-18 19 -27 68l-14 80q6 150 6 241q0 65 -3 97.5t-3 24.5q19 210 217 210q54 0 111 -87q46 -71 46 -94zM345 121v512
q-25 25 -103 64q-27 -26 -54.5 -52.5t-27.5 -37.5q-8 -73 -8 -223q0 -5 -1 -35.5t-1 -53.5q0 -225 105 -225q16 0 46 22q37 26 44 29z" />
    <glyph glyph-name="p" unicode="p" horiz-adv-x="520" 
d="M443 528q0 -9 2 -33.5t1 -37.5q-1 -19 -8 -34q-48 -100 -152 -100q-15 0 -21 6t-21 6q-20 0 -46 -20t-44 -48q0 -3 12 -9t11 -24v-246q-16 -4 -45 -1q-30 3 -50 14v399q0 19 -8 24.5t-16 10.5l12 302q0 -8 8 -8q6 0 23 6t23 5q41 -3 119 0q97 5 92 5q20 0 61 -45t43 -69
q4 -100 4 -103zM371 552q0 36 -27 74q-33 47 -82 47q-40 0 -96 -51q0 1 0 -15q-1 -17 -1 -32q0 -155 67 -155q15 0 18 6t18 6q53 0 80 40q23 33 23 80z" />
    <glyph glyph-name="q" unicode="q" horiz-adv-x="537" 
d="M502 -30q0 -13 -40 -54q-41 48 -126 48q-19 0 -57 -2.5t-55 -2.5q-33 0 -55 7q-36 12 -65 65q-22 44 -43 87l1.5 14t2.5 38q1 36 1 93q0 113 -5 300l24 60q22 40 61 52q31 9 101 9q55 0 80 -14q41 -22 78 -96q-2 -53 -11 -164q-6 -42 -6 -91q0 -100 24 -233q3 -14 38 -54
q44 -50 52 -62zM328 288q0 16 -6 113q-9 117 -11 152q-61 38 -82 38q-19 0 -38.5 -14.5t-21.5 -25.5q-14 -60 -27 -172q-11 -96 -11 -120q0 -16 26.5 -51.5t26.5 -42.5q2 -10 -2 -33q-4 -26 -4 -34q0 -10 3 -16q23 -49 35 -61q5 0 26 7t27 7q-25 51 -25 80q0 50 67 74
q2 11 10 53q7 33 7 46z" />
    <glyph glyph-name="r" unicode="r" horiz-adv-x="637" 
d="M51 795v21v-21zM549 -4q0 -17 -6 -31.5t-6 -17.5l-14 -14q-4 -2 -22 -2q-20 0 -46 19.5t-34 44.5q-9 30 -16 96q-9 76 -15 107q-3 15 -24 35q-25 25 -28 32h-31q-25 -39 -34 -49q-21 -23 -46 -32l10 -64q6 0 18 11.5t18 11.5q-2 -56 14 -151l-13 -48l-78 -13l-16 15v233
q6 5 23.5 10t24.5 11q-10 41 -44 45q-1 21 -9 78q-7 51 -7 66q0 36 4 51q7 8 21 39.5t35 52.5q-31 20 -42 67q-9 39 -17 78q81 28 213 28q92 0 131 -99q24 -60 24 -139q0 -15 -35.5 -113.5t-35.5 -113.5q0 -13 41.5 -122t41.5 -122zM442 532q0 26 -50 53q-46 24 -75 24
q-21 0 -37.5 -24.5t-16.5 -40.5q0 -9 8 -55t8 -72q0 -18 -3 -31q21 -5 52 -5q16 0 48 2q29 2 40 2q26 130 26 147z" />
    <glyph glyph-name="s" unicode="s" horiz-adv-x="528" 
d="M416 115q0 -40 -5 -86q-38 -24 -54.5 -49t-25.5 -29q-19 -8 -81 -8q-79 0 -122 46q-27 30 -69 128q45 47 104 63q11 -27 17 -109q18 -10 35 -21q22 -12 41 -12q45 0 68 31q21 27 21 70q0 19 -7 30q-7 8 -13 16q-7 51 -51 87q-44 30 -89 60q-54 39 -75 91q-2 5 -2 12
q0 9 6 25.5t6 23.5q0 24 -59 32q0 31 42 54q-3 7 -3 16l11 57q116 62 145 62q32 0 84 -27.5t76 -60.5v-135q-6 -7 -13 -13q-4 -2 -22 -2q-34 0 -50 40q-12 37 -25 74q-21 40 -68 40q-41 0 -72 -56q-23 -43 -23 -63q0 -13 80 -80q98 -80 128 -117q42 -50 56 -78
q11 -24 11 -53q0 -6 -1 -25.5t-1 -33.5z" />
    <glyph glyph-name="t" unicode="t" horiz-adv-x="514" 
d="M445 639q-11 -11 -79 -26q-60 -13 -73 -47q-20 -55 -20 -135q0 -33 5 -118q5 -74 4 -114q0 -69 -1 -138q-3 -92 -29 -129h-55q0 10 -7 38t-7 44q0 8 9 60t9 78q0 15 -3 24l18 24q12 16 27 23q-61 38 -61 125q0 29 8.5 85t8.5 79q0 50 -28 71q-34 25 -117 16q0 6 -6 28
t-6 28l344 38q18 0 36 -22q12 -16 23 -32z" />
    <glyph glyph-name="u" unicode="u" horiz-adv-x="546" 
d="M427 348q0 -3 1.5 -40t1.5 -67q0 -298 -116 -298q-121 0 -169 27q-18 10 -24 48q-4 30 -7 60q-21 97 -21 240v62q1 42 1 62q0 139 -24 222l28 28h64v-646q29 -22 82 -68q21 7 50 31.5t58 49.5q10 56 10 79q0 26 -6 48q0 328 4 423q2 74 12 84q9 -1 30 -6q25 -70 25 -339z
" />
    <glyph glyph-name="v" unicode="v" horiz-adv-x="539" 
d="M464 655q-21 -96 -122 -624q-2 -8 -23.5 -40.5t-21.5 -46.5h-55q-74 183 -73 209v75q1 -1 47 -28q31 -19 47 -19q19 0 31 23q7 12 21 53q21 25 67 73q-14 8 -28 17q-20 12 -20 30q0 24 24 115q25 96 50 163h56zM203 379l-15 -114l-30 12q-7 7 -5 25q1 20 0 24
q-34 27 -53 109q-22 93 -51 131l15 90q47 -22 70 -76q9 -21 29 -102q16 -66 40 -99zM499 816v-21v21z" />
    <glyph glyph-name="w" unicode="w" horiz-adv-x="577" 
d="M463 703q1 -24 1 -50q0 -75 -28 -276q-19 -139 -43 -407q-27 -26 -44 -26q-22 39 -32 142q-8 90 -53 143q-3 -17 -19 -150q-12 -96 -33 -159q-45 6 -55 71q-1 6 -3 104q0 27 -3 43q-27 175 -90 541h55q37 -51 37 -113q0 -12 -1 -33t-1 -31q0 -62 47 -107q35 17 35 87
q0 18 -2.5 52t-2.5 48q0 13 2 24t16 37.5t16 37.5q3 -15 27.5 -60.5t27.5 -75.5q1 -52 14 -151q31 0 34 31q14 165 42 278h56z" />
    <glyph glyph-name="x" unicode="x" horiz-adv-x="521" 
d="M437 -4q0 -35 -15 -46q-25 -16 -50 -31q-21 20 -50 52q0 27 -26 90q-30 73 -35 97q-28 -4 -51.5 -54.5t-45.5 -98.5q-29 -54 -68 -62q-16 16 -16 59q0 39 75 211q3 7 21 11q26 7 35 11l-36 35q6 6 24 18.5t24 18.5q-66 126 -99 211q-13 20 -27 24q-41 82 -41 127
q0 18 4.5 23.5t11.5 11.5h39q26 -8 50 -82q29 -86 47 -108h42q19 48 39 97q23 57 44 93h41q16 -11 16 -59q0 -19 -46 -142q-49 -129 -73 -162q18 -24 43 -69q-2 -19 7 -59q5 -10 32 -33.5t32 -38.5q4 -11 32 -78q20 -49 20 -67z" />
    <glyph glyph-name="y" unicode="y" horiz-adv-x="506" 
d="M409 663q0 -6 -54 -154q-57 -156 -63 -181q-8 -36 -8 -112q0 -35 3 -130q3 -90 2 -140q-7 -6 -13 -13q-4 -2 -22 -2q-39 0 -57 41q24 108 24 193q0 48 -7 92q-3 20 -26 59q-29 49 -38 71q-13 32 -45 142q-26 90 -53 137q9 0 17.5 8.5t8.5 17.5q40 -20 61 -78l28 -106
q16 -59 47 -77q32 0 48 32q17 36 44 114q29 89 46 127q14 0 33 -9q24 -13 24 -32z" />
    <glyph glyph-name="z" unicode="z" horiz-adv-x="489" 
d="M414 -55q-64 -9 -148 -9q-85 0 -159 9v98q0 20 68 206q60 162 122 318q-37 51 -91 51q-15 0 -45.5 -5t-44.5 -5q-33 0 -57 19q34 27 46 31q18 7 75 10q183 10 199 11q0 -3 6.5 -13t6.5 -27q0 -23 -62 -231q-65 -213 -117 -361q80 -18 201 0v-102z" />
    <glyph glyph-name="braceleft" unicode="{" 
d="M672 714l-154 -176q0 -5 4 -6.5t12 -3t10 -1.5h12.5h13.5q3 -12 3 -49q-6 -8 -23.5 -8.5t-34.5 -0.5q-3 -2 -6 -6q-8 -53 -23 -158l171 -209q-9 -13 -30 -26l-145 162q-8 -5 -8 -15q0 -7 13 -21t16 -22q5 -22 5 -27q0 -13 -12.5 -33t-25.5 -23q-24 -6 -30 -6q-8 0 -25 8
q-20 9 -25 20q-6 15 -13 24q-5 3 -26 3q-1 0 -22.5 -1.5t-34.5 -1.5q-7 0 -11 -4v-27q0 -3 -1.5 -5t-1.5 -3q-8 -3 -26 -3q-3 0 -23 1q-5 6 -5 18q0 16 -1 19q-5 3 -13 10q0 12 -5 37q-17 -9 -58.5 -59.5t-48.5 -50.5q-4 0 -16 11t-12 15q0 7 24 33q37 39 104 119q1 1 1 23
q0 3 -3 40q-4 44 -5 61q-7 87 -15 173q-1 12 -3 32q-2 10 -26 9q0 10 -4 29l-41.5 47.5t-41.5 52.5q0 3 11.5 14t18.5 14l99 -102q21 1 21.5 24t15.5 23q12 0 16.5 -15t10.5 -15q17 0 44 12q1 11 4 33h88q7 -3 8 -15q0 -7 1 -15q0 -1 4 -4q15 -2 54 -9q36 -7 38 -7
q7 0 16 15t28 15q14 0 29 -12l72 72q4 0 15.5 -11t15.5 -18zM429 -16q-6 -1 -17 -5v-33q4 -3 14 -2l1.5 -7.5t1.5 -14.5q-3 0 -10.5 -1.5t-10.5 -1.5q-25 0 -28 20.5t-4 39.5q-1 2 -9 2v25h9q3 0 3 5q-1 9 -1 8q7 5 31 17q3 -10 3 -28q6 -1 17 -5v-19zM359 9h-36v-87h-37v86
q-19 1 -38 -1l3 30h108v-28zM548 655q-1 0 -5.5 1.5t-8.5 1.5l-6 -7q0 -4 6 -10h11zM548 498q-2 7 -15 7q-12 -1 -20 -7q6 -5 6 -6q24 0 29 6zM362 672v4h-27v-4h27zM469 626q-50 17 -107 17q-24 0 -86 -8q-8 -3 -23 -8zM488 583l-206 3q-27 1 -41 -6q32 -39 73 -80
q0 10 5 14h82q18 -1 24 -2q4 0 3 0q5 0 32 33.5t28 37.5zM402 480q0 6 -6 12q-19 0 -56 -1v-13q3 -1 48 -1q10 0 14 3zM483 494q-84 -83 -84 -95q0 -5 27 -35.5t32 -30.5t6 3zM374 447q-1 0 -5.5 1.5t-5.5 1.5q-4 -6 0 -10q5 0 11 7zM330 400q0 6 -55 67.5t-69 71.5v-31
l23 -222q18 16 59.5 61.5t41.5 52.5zM451 259q0 9 -39 53.5t-48 48.5l-131 -150q3 -12 4 -41q22 -5 73 -5q53 0 71 3q20 34 51 43q19 6 19 48zM484 150q0 13 -13 26t-26 13q-18 0 -29.5 -12.5t-11.5 -27.5q0 -17 11.5 -28t27.5 -11q15 0 28 11t13 29zM263 124q-2 5 -9 13
q-3 -1 -8 -5v-14q1 0 5.5 -1.5t5.5 -1.5q1 1 3 4t3 5zM469 150q0 -25 -25 -25t-25 24q0 26 25 26q9 0 17 -8.5t8 -16.5z" />
    <glyph glyph-name="bar" unicode="|" 
d="M672 714l-154 -176q0 -5 4 -6.5t12 -3t10 -1.5h12.5h13.5q3 -12 3 -49q-6 -8 -23.5 -8.5t-34.5 -0.5q-3 -2 -6 -6q-8 -53 -23 -158l171 -209q-9 -13 -30 -26l-145 162q-8 -5 -8 -15q0 -7 13 -21t16 -22q5 -22 5 -27q0 -13 -12.5 -33t-25.5 -23q-24 -6 -30 -6q-8 0 -25 8
q-20 9 -25 20q-6 15 -13 24q-5 3 -26 3q-1 0 -22.5 -1.5t-34.5 -1.5q-7 0 -11 -4v-27q0 -3 -1.5 -5t-1.5 -3q-8 -3 -26 -3q-3 0 -23 1q-5 6 -5 18q0 16 -1 19q-5 3 -13 10q0 12 -5 37q-17 -9 -58.5 -59.5t-48.5 -50.5q-4 0 -16 11t-12 15q0 7 24 33q37 39 104 119q1 1 1 23
q0 3 -3 40q-4 44 -5 61q-7 87 -15 173q-1 12 -3 32q-2 10 -26 9q0 10 -4 29l-41.5 47.5t-41.5 52.5q0 3 11.5 14t18.5 14l99 -102q21 1 21.5 24t15.5 23q12 0 16.5 -15t10.5 -15q17 0 44 12q1 11 4 33h88q7 -3 8 -15q0 -7 1 -15q0 -1 4 -4q15 -2 54 -9q36 -7 38 -7
q7 0 16 15t28 15q14 0 29 -12l72 72q4 0 15.5 -11t15.5 -18zM429 -16q-6 -1 -17 -5v-33q4 -3 14 -2l1.5 -7.5t1.5 -14.5q-3 0 -10.5 -1.5t-10.5 -1.5q-25 0 -28 20.5t-4 39.5q-1 2 -9 2v25h9q3 0 3 5q-1 9 -1 8q7 5 31 17q3 -10 3 -28q6 -1 17 -5v-19zM359 9h-36v-87h-37v86
q-19 1 -38 -1l3 30h108v-28zM548 655q-1 0 -5.5 1.5t-8.5 1.5l-6 -7q0 -4 6 -10h11zM548 498q-2 7 -15 7q-12 -1 -20 -7q6 -5 6 -6q24 0 29 6zM362 672v4h-27v-4h27zM469 626q-50 17 -107 17q-24 0 -86 -8q-8 -3 -23 -8zM488 583l-206 3q-27 1 -41 -6q32 -39 73 -80
q0 10 5 14h82q18 -1 24 -2q4 0 3 0q5 0 32 33.5t28 37.5zM402 480q0 6 -6 12q-19 0 -56 -1v-13q3 -1 48 -1q10 0 14 3zM483 494q-84 -83 -84 -95q0 -5 27 -35.5t32 -30.5t6 3zM374 447q-1 0 -5.5 1.5t-5.5 1.5q-4 -6 0 -10q5 0 11 7zM330 400q0 6 -55 67.5t-69 71.5v-31
l23 -222q18 16 59.5 61.5t41.5 52.5zM451 259q0 9 -39 53.5t-48 48.5l-131 -150q3 -12 4 -41q22 -5 73 -5q53 0 71 3q20 34 51 43q19 6 19 48zM484 150q0 13 -13 26t-26 13q-18 0 -29.5 -12.5t-11.5 -27.5q0 -17 11.5 -28t27.5 -11q15 0 28 11t13 29zM263 124q-2 5 -9 13
q-3 -1 -8 -5v-14q1 0 5.5 -1.5t5.5 -1.5q1 1 3 4t3 5zM469 150q0 -25 -25 -25t-25 24q0 26 25 26q9 0 17 -8.5t8 -16.5z" />
    <glyph glyph-name="braceright" unicode="}" 
d="M672 714l-154 -176q0 -5 4 -6.5t12 -3t10 -1.5h12.5h13.5q3 -12 3 -49q-6 -8 -23.5 -8.5t-34.5 -0.5q-3 -2 -6 -6q-8 -53 -23 -158l171 -209q-9 -13 -30 -26l-145 162q-8 -5 -8 -15q0 -7 13 -21t16 -22q5 -22 5 -27q0 -13 -12.5 -33t-25.5 -23q-24 -6 -30 -6q-8 0 -25 8
q-20 9 -25 20q-6 15 -13 24q-5 3 -26 3q-1 0 -22.5 -1.5t-34.5 -1.5q-7 0 -11 -4v-27q0 -3 -1.5 -5t-1.5 -3q-8 -3 -26 -3q-3 0 -23 1q-5 6 -5 18q0 16 -1 19q-5 3 -13 10q0 12 -5 37q-17 -9 -58.5 -59.5t-48.5 -50.5q-4 0 -16 11t-12 15q0 7 24 33q37 39 104 119q1 1 1 23
q0 3 -3 40q-4 44 -5 61q-7 87 -15 173q-1 12 -3 32q-2 10 -26 9q0 10 -4 29l-41.5 47.5t-41.5 52.5q0 3 11.5 14t18.5 14l99 -102q21 1 21.5 24t15.5 23q12 0 16.5 -15t10.5 -15q17 0 44 12q1 11 4 33h88q7 -3 8 -15q0 -7 1 -15q0 -1 4 -4q15 -2 54 -9q36 -7 38 -7
q7 0 16 15t28 15q14 0 29 -12l72 72q4 0 15.5 -11t15.5 -18zM429 -16q-6 -1 -17 -5v-33q4 -3 14 -2l1.5 -7.5t1.5 -14.5q-3 0 -10.5 -1.5t-10.5 -1.5q-25 0 -28 20.5t-4 39.5q-1 2 -9 2v25h9q3 0 3 5q-1 9 -1 8q7 5 31 17q3 -10 3 -28q6 -1 17 -5v-19zM359 9h-36v-87h-37v86
q-19 1 -38 -1l3 30h108v-28zM548 655q-1 0 -5.5 1.5t-8.5 1.5l-6 -7q0 -4 6 -10h11zM548 498q-2 7 -15 7q-12 -1 -20 -7q6 -5 6 -6q24 0 29 6zM362 672v4h-27v-4h27zM469 626q-50 17 -107 17q-24 0 -86 -8q-8 -3 -23 -8zM488 583l-206 3q-27 1 -41 -6q32 -39 73 -80
q0 10 5 14h82q18 -1 24 -2q4 0 3 0q5 0 32 33.5t28 37.5zM402 480q0 6 -6 12q-19 0 -56 -1v-13q3 -1 48 -1q10 0 14 3zM483 494q-84 -83 -84 -95q0 -5 27 -35.5t32 -30.5t6 3zM374 447q-1 0 -5.5 1.5t-5.5 1.5q-4 -6 0 -10q5 0 11 7zM330 400q0 6 -55 67.5t-69 71.5v-31
l23 -222q18 16 59.5 61.5t41.5 52.5zM451 259q0 9 -39 53.5t-48 48.5l-131 -150q3 -12 4 -41q22 -5 73 -5q53 0 71 3q20 34 51 43q19 6 19 48zM484 150q0 13 -13 26t-26 13q-18 0 -29.5 -12.5t-11.5 -27.5q0 -17 11.5 -28t27.5 -11q15 0 28 11t13 29zM263 124q-2 5 -9 13
q-3 -1 -8 -5v-14q1 0 5.5 -1.5t5.5 -1.5q1 1 3 4t3 5zM469 150q0 -25 -25 -25t-25 24q0 26 25 26q9 0 17 -8.5t8 -16.5z" />
    <glyph glyph-name="asciitilde" unicode="~" 
d="M672 714l-154 -176q0 -5 4 -6.5t12 -3t10 -1.5h12.5h13.5q3 -12 3 -49q-6 -8 -23.5 -8.5t-34.5 -0.5q-3 -2 -6 -6q-8 -53 -23 -158l171 -209q-9 -13 -30 -26l-145 162q-8 -5 -8 -15q0 -7 13 -21t16 -22q5 -22 5 -27q0 -13 -12.5 -33t-25.5 -23q-24 -6 -30 -6q-8 0 -25 8
q-20 9 -25 20q-6 15 -13 24q-5 3 -26 3q-1 0 -22.5 -1.5t-34.5 -1.5q-7 0 -11 -4v-27q0 -3 -1.5 -5t-1.5 -3q-8 -3 -26 -3q-3 0 -23 1q-5 6 -5 18q0 16 -1 19q-5 3 -13 10q0 12 -5 37q-17 -9 -58.5 -59.5t-48.5 -50.5q-4 0 -16 11t-12 15q0 7 24 33q37 39 104 119q1 1 1 23
q0 3 -3 40q-4 44 -5 61q-7 87 -15 173q-1 12 -3 32q-2 10 -26 9q0 10 -4 29l-41.5 47.5t-41.5 52.5q0 3 11.5 14t18.5 14l99 -102q21 1 21.5 24t15.5 23q12 0 16.5 -15t10.5 -15q17 0 44 12q1 11 4 33h88q7 -3 8 -15q0 -7 1 -15q0 -1 4 -4q15 -2 54 -9q36 -7 38 -7
q7 0 16 15t28 15q14 0 29 -12l72 72q4 0 15.5 -11t15.5 -18zM429 -16q-6 -1 -17 -5v-33q4 -3 14 -2l1.5 -7.5t1.5 -14.5q-3 0 -10.5 -1.5t-10.5 -1.5q-25 0 -28 20.5t-4 39.5q-1 2 -9 2v25h9q3 0 3 5q-1 9 -1 8q7 5 31 17q3 -10 3 -28q6 -1 17 -5v-19zM359 9h-36v-87h-37v86
q-19 1 -38 -1l3 30h108v-28zM548 655q-1 0 -5.5 1.5t-8.5 1.5l-6 -7q0 -4 6 -10h11zM548 498q-2 7 -15 7q-12 -1 -20 -7q6 -5 6 -6q24 0 29 6zM362 672v4h-27v-4h27zM469 626q-50 17 -107 17q-24 0 -86 -8q-8 -3 -23 -8zM488 583l-206 3q-27 1 -41 -6q32 -39 73 -80
q0 10 5 14h82q18 -1 24 -2q4 0 3 0q5 0 32 33.5t28 37.5zM402 480q0 6 -6 12q-19 0 -56 -1v-13q3 -1 48 -1q10 0 14 3zM483 494q-84 -83 -84 -95q0 -5 27 -35.5t32 -30.5t6 3zM374 447q-1 0 -5.5 1.5t-5.5 1.5q-4 -6 0 -10q5 0 11 7zM330 400q0 6 -55 67.5t-69 71.5v-31
l23 -222q18 16 59.5 61.5t41.5 52.5zM451 259q0 9 -39 53.5t-48 48.5l-131 -150q3 -12 4 -41q22 -5 73 -5q53 0 71 3q20 34 51 43q19 6 19 48zM484 150q0 13 -13 26t-26 13q-18 0 -29.5 -12.5t-11.5 -27.5q0 -17 11.5 -28t27.5 -11q15 0 28 11t13 29zM263 124q-2 5 -9 13
q-3 -1 -8 -5v-14q1 0 5.5 -1.5t5.5 -1.5q1 1 3 4t3 5zM469 150q0 -25 -25 -25t-25 24q0 26 25 26q9 0 17 -8.5t8 -16.5z" />
    <glyph glyph-name="glyph100" horiz-adv-x="275" 
 />
    <glyph glyph-name="glyph101" horiz-adv-x="275" 
 />
    <glyph glyph-name="glyph102" horiz-adv-x="275" 
 />
    <glyph glyph-name="glyph103" horiz-adv-x="275" 
 />
    <glyph glyph-name="glyph104" horiz-adv-x="275" 
 />
    <glyph glyph-name="glyph105" horiz-adv-x="275" 
 />
    <glyph glyph-name="glyph106" horiz-adv-x="275" 
 />
    <glyph glyph-name="glyph107" horiz-adv-x="275" 
 />
    <glyph glyph-name="glyph108" horiz-adv-x="275" 
 />
    </font>
</defs>
</svg>
